BitTorrentTracker PerecTracker.org
BitTorrentTracker PerecTracker.org
    
Регистрация  ·  Вход
 
 · 
Забыли пароль?

  • Реальные пацаны / Сезон: 8 / Серии: 1-16 из 16 (Жанна Кадникова) [2016, Комедия, WEBRip (720p)]

    Ответить на тему
     
    Автор Сообщение

    rechyn

    Создавать темы 08-Июн-2016 21:00

           

    [Цитировать]

    Год выпуска: 2016
    Производство: Россия, Гуд Стори Медиа
    Жанр: Комедия
    Продолжительность: 00:23:00
    Субтитры: нет
    Режиссёр: Жанна Кадникова
    В ролях: Николай Наумов, Антон Богданов, Владимир Селиванов, Станислав Тляшев, Игорь Ознобихин, Марина Федункив, Валентина Мазунина, Алексей Базанов, Армен Бежанян, Мария Скорницкая
    Описание: 16 мая 2016 года навсегда войдет в историю телевидения. В этот день совместный эксперимент телеканала «ТНТ» и правоохранительных органов Пермского края успешно завершен: с Николая Наумова снимают условный срок и впервые за последние шесть лет он оказывается в условиях настоящей свободы. Камера выключена и больше не преследует Коляна по пятам. Ему больше не нужно регулярно отмечаться в полицейском участке, беспокоиться за свою репутацию перед телезрителями ТНТ, жить с оглядкой на условный срок и камеру. Теперь-то дела точно пойдут в гору. Свобода Николая Наумова также принесла свободу всем остальным героям «Реальных пацанов», которым больше не нужно сдерживать эмоции, включать самоцензуру и скрывать свое истинное лицо от вездесущей камеры. Камера, стоп! На этом история простого пермского пацана Коляна Наумова заканчивается, и начинается новая — история взрослого, ответственного, уверенного в себе человека, кандидата в депутаты Николая Александровича Наумова. И это не шутка. Камера, мотор! В новом сезоне «Реальных пацанов» бывший гопник Колян, благодаря финансовой помощи Сергея Ивановича Оборина, моральной поддержке Вована, Антохи и Леры, а также силами пиарщицы Олеси Геннадьевны будет строить политическую карьеру.
    Все раздачи сериала
    Семпл
    Качество: WEBRip (720p)
    Формат: mkv
    Видео кодек: H.264
    Аудио кодек: AAC
    Видео: MPEG-4 AVC (H.264), 1280x720, ~ 3500 Кбит/с, 25fps, (0.154 bit/pixel)
    Аудио: 44.1 kHz, AAC, 1 ch, 192 Kbps

    MI

    Формат : Matroska
    Версия формата : Version 4 / Version 2
    Размер файла : 632 Мбайт
    Продолжительность : 23 м.
    Общий поток : 3751 Кбит/сек
    Дата кодирования : UTC 2016-05-24 19:39:17
    Программа кодирования : mkvmerge v7.9.0 ('Birds') 64bit
    Библиотека кодирования : libebml v1.3.1 + libmatroska v1.4.2
    Видео
    Идентификатор : 1
    Формат : AVC
    Формат/Информация : Advanced Video Codec
    Профиль формата : High@L3.1
    Параметр CABAC формата : Да
    Параметр ReFrames формата : 1 кадр
    Параметр GOP формата : M=1, N=12
    Идентификатор кодека : V_MPEG4/ISO/AVC
    Продолжительность : 23 м.
    Битрейт : 3557 Кбит/сек
    Ширина : 1280 пикселей
    Высота : 720 пикселей
    Соотношение сторон : 16:9
    Режим частоты кадров : Постоянный
    Частота кадров : 25,000 кадров/сек
    Стандарт вещания : Component
    Цветовое пространство : YUV
    Субдискретизация насыщенности : 4:2:0
    Битовая глубина : 8 бит
    Тип развёртки : Прогрессивная
    Бит/(Пиксели*Кадры) : 0.154
    Размер потока : 599 Мбайт (95%)
    Default : Да
    Forced : Нет
    Цветовой диапазон : Limited
    Аудио
    Идентификатор : 2
    Формат : AAC
    Формат/Информация : Advanced Audio Codec
    Профиль формата : LC
    Идентификатор кодека : A_AAC
    Продолжительность : 23 м.
    Битрейт : 192 Кбит/сек
    Каналы : 1 канал
    Расположение каналов : Front: C
    Частота : 44,1 КГц
    Частота кадров : 43,066 кадра/сек (1024 spf)
    Метод сжатия : С потерями
    Размер потока : 32,3 Мбайт (5%)
    Default : Да
    Forced : Нет

    Скриншоты

    Скачать .torrent

    Скачать торрент-файл бесплатно и на максимальной скорости!

    Как скачивать? · Что такое торрент? · Рейтинг и ограничения

    !ВНИМАНИЕ!
    Сайт не распространяет и не хранит электронные версии произведений, а занимается лишь лишь предоставлением доступа к создаваемому пользователями каталогу ссылок на торрент-файлы, которые содержат только списки хеш-сумм, убедительная просьба с жалобами обращаться напрямую к пользователю. Файлы для обмена на трекере предоставлены пользователями сайта, и администрация не несёт ответственности за их содержание. Просьба не заливать файлы, защищенные авторскими правами, а также файлы нелегального содержания!


    _________________
    [Профиль] [ЛС]
    Показать сообщения:    
    Ответить на тему

    Текущее время: Сегодня, в 09:09

    Часовой пояс: GMT + 2



    Вы не можете начинать темы
    Вы не можете отвечать на сообщения
    Вы не можете редактировать свои сообщения
    Вы не можете удалять свои сообщения
    Вы не можете голосовать в опросах
    Вы не можете прикреплять файлы к сообщениям
    Вы не можете скачивать файлы