Register  ·  Log in
Forgot password?

  • Специальный полуночный выпуск / Midnight Special (2016) HDRip | L

    Reply to topic
    Author Message


    Post 08-Jun-2016 20:24



    Специальный полуночный выпуск / Midnight Special
    Страна: США
    Производство: Faliro House Productions, Tri-State Pictures, Warner Bros. Pictures
    Год выпуска: 2016
    Жанр: фантастика, триллер, драма, приключения
    Продолжительность: 01:51:55
    Режиссер: Джефф Николс
    Автор сценария: Джефф Николс
    В ролях: Майкл Шеннон, Джоэл Эдгертон, Кирстен Данст, Джейден Либерер, Адам Драйвер, Билл Кэмп, Скотт Хэйз, Сэм Шепард
    Описание: Отец и сын сбегают, после того, как отец узнает, что его ребенок обладает сверхъестественными способностями...

    Перевод: Любительский (многоголосый, закадровый) | Paradox & Omskbird records
    Субтитры: нет-Качество: HDRip
    Формат: АVI
    Видео кодек: XviD
    Аудио кодек: АС3
    Видео: 720x304 (2.35:1), 23.976 fps, XviD ~1 183 kbps avg
    Аудио: 48.0 kHz, AC3 Dolby Digital, 3/2 (L,C,R,l,r) + LFE ch, ~448.00 kbps
    Дата премьеры (мир): 12 февраля 2016

    Media Info

    Format : AVI
    Format/Info : Audio Video Interleave
    Overall bit rate : 1 642 Kbps
    Movie name : Cpec.p0LuH04Hyj.BypuCkl.2016.P.HDRip.14OOMB
    Writing application : VirtualDubMod | (build 2550/release)
    Writing library : VirtualDubMod build 2550/release
    ID : 0
    Format : MPEG-4 Visual
    Format profile : Advanced Simple@L5
    Format settings, BVOP : 2
    Format settings, QPel : No
    Format settings, GMC : No warppoints
    Format settings, Matrix : Custom
    Codec ID : XVID
    Codec ID/Hint : XviD
    Bit rate : 1 183 Kbps
    Width : 720 pixels
    Height : 304 pixels
    Display aspect ratio : 2.35:1
    Frame rate : 23.976 fps
    Color space : YUV
    Chroma subsampling : 4:2:0
    Bit depth : 8 bits
    Scan type : Progressive
    Compression mode : Lossy
    Bits/(Pixel*Frame) : 0.225
    Stream size : 9.75 MiB (72%)
    Writing library : XviD 1.2.1 (UTC 2008-12-04)
    ID : 1
    Format : AC-3
    Format/Info : Audio Coding 3
    Mode extension : CM (complete main)
    Format settings, Endianness : Big
    Codec ID : 2000
    Bit rate mode : Constant
    Bit rate : 448 Kbps
    Channel(s) : 6 channels
    Channel positions : Front: L C R, Side: L R, LFE
    Sampling rate : 48.0 KHz
    Compression mode : Lossy
    Stream size : 3.69 MiB (27%)
    Alignment : Split accross interleaves
    Interleave, duration : 42 ms (1.01 video frame)
    Interleave, preload duration : 500 ms


    Download .torrent

    Download free and at maximum speed!

    How to Download? · What is a torrent? · Ratings and Limitations

    The site does not extend and does not store electronic(digital) versions of products, and only gives access to a reference catalogue created by users on torrent-files which contain only lists of the hash-sums, the earnest entreaty, with complaints(abuse) to access directly to the user. Files for an exchange on tracker are given by users of a site, and the administration does not bear the responsibility for their maintenance. The request to not fill in the files protected by copyrights, and also files of the illegal maintenance!

    [Profile] [PM]
    Display posts from previous:    
    Reply to topic

    The time now is: Today 00:25

    All times are GMT + 3 Hours

    You cannot post new topics in this forum
    You cannot reply to topics in this forum
    You cannot edit your posts in this forum
    You cannot delete your posts in this forum
    You cannot vote in polls in this forum
    You cannot attach files in this forum
    You cannot download files in this forum