BitTorrentTracker PerecTracker.org
BitTorrentTracker PerecTracker.org
    
Регистрация  ·  Вход
 
 · 
Забыли пароль?

  • Город самоубийц / Bridgend (Йеппе Рёнде / JEPPE RØNDE) [2015, Дания, драма, триллер, HDTVRip] DVO (DeadSno&Den904 по переводу Professor\'a)

    Ответить на тему
     
    Автор Сообщение

    Light

    Создавать темы 07-Июн-2016 22:44

           

    [Цитировать]

    Город самоубийц / Bridgend
    Страна: Дания
    Жанр: драма, триллер
    Год выпуска: 2015
    Продолжительность: 01:44:08
    Перевод: Любительский (двухголосый закадровый) (DeadSno&Den904 по переводу Professor'a)
    Cубтитры: нет
    Режиссер: Йеппе Рёнде / JEPPE RØNDE
    В ролях: Ханна Мюррэй, Джош О’Коннор, Эдриан Роулинз, Патриция Поттер, Ниа Робертс, Стивен Вэддингтон, Скотт Артур, Алед Ллир Томас, Элинор Кроули, Джэми Берч
    Описание: В Великобритании находится город, который носит название Бридженд. Он является графством, и здесь добывали уголь. Город расположен в Уэльсе. Именно здесь произошли самоубийства, на рассказах о которых чем и построена кинолента. Все началось в 2007 году, в декабре. По предварительным подсчетам до 2012 года покончили с собой очень таинственным образом 79 человек. И это только те, что были зарегистрированы. Картина пытается рассказать, что подростки очень ранимы, а родители не всегда это понимают. Порой отношения между самыми близкими людьми приобретают очень бескомпромиссный характер.
    Доп. информация: Примечание : -- Категория просмотра 18+
    Сэмпл: http://multi-up.com/1104819
    Качество видео: HDTVRip
    Формат видео: AVI
    Видео: XviD 65, 640x272, (2,35:1), 25,000 fps, 802 Кбит/с, 8 бит
    Аудио: Русский (AC-3, 2 ch (Front: L R), 48,0 KHz, 192 Kbps)

    MediaInfo

    Общее
    Полное имя : F:\Видеофильмы\В и д е о\Город самоубийц (драма триллер 2015г)11.avi
    Формат : AVI
    Формат/Информация : Audio Video Interleave
    Размер файла : 747 Мбайт
    Продолжительность : 1 ч. 44 м.
    Общий поток : 1003 Кбит/сек
    Видео
    Идентификатор : 0
    Формат : MPEG-4 Visual
    Профиль формата : Advanced Simple@L5
    Параметр BVOP формата : 2
    Параметр QPel формата : Нет
    Параметр GMC формата : Без точки перехода
    Параметр матрицы формата : Default (H.263)
    Идентификатор кодека : XVID
    Идентификатор кодека/Подсказка : XviD
    Продолжительность : 1 ч. 44 м.
    Битрейт : 802 Кбит/сек
    Ширина : 640 пикселей
    Высота : 272 пикселя
    Соотношение сторон : 2,35:1
    Частота кадров : 25,000 кадров/сек
    Цветовое пространство : YUV
    Субдискретизация насыщенности : 4:2:0
    Битовая глубина : 8 бит
    Тип развёртки : Прогрессивная
    Метод сжатия : С потерями
    Бит/(Пиксели*Кадры) : 0.184
    Размер потока : 597 Мбайт (80%)
    Библиотека кодирования : XviD 65
    Аудио
    Идентификатор : 1
    Формат : AC-3
    Формат/Информация : Audio Coding 3
    Расширение режима : CM (complete main)
    Параметр Endianness формата : Big
    Идентификатор кодека : 2000
    Продолжительность : 1 ч. 44 м.
    Вид битрейта : Постоянный
    Битрейт : 192 Кбит/сек
    Каналы : 2 канала
    Расположение каналов : Front: L R
    Частота : 48,0 КГц
    Частота кадров : 31,250 кадров/сек (1536 spf)
    Битовая глубина : 16 бит
    Метод сжатия : С потерями
    Размер потока : 143 Мбайт (19%)
    Выравнивание : Соединение по промежуткам
    Продолжительность промежутка : 40 мс. (1,00 видеокадр)

    Скриншот c названием фильма

    Скриншоты

    Скачать .torrent

    Скачать торрент-файл бесплатно и на максимальной скорости!

    Как скачивать? · Что такое торрент? · Рейтинг и ограничения

    !ВНИМАНИЕ!
    Сайт не распространяет и не хранит электронные версии произведений, а занимается лишь лишь предоставлением доступа к создаваемому пользователями каталогу ссылок на торрент-файлы, которые содержат только списки хеш-сумм, убедительная просьба с жалобами обращаться напрямую к пользователю. Файлы для обмена на трекере предоставлены пользователями сайта, и администрация не несёт ответственности за их содержание. Просьба не заливать файлы, защищенные авторскими правами, а также файлы нелегального содержания!


    _________________
    [Профиль] [ЛС]
    Показать сообщения:    
    Ответить на тему

    Текущее время: Сегодня, в 22:12

    Часовой пояс: GMT + 2



    Вы не можете начинать темы
    Вы не можете отвечать на сообщения
    Вы не можете редактировать свои сообщения
    Вы не можете удалять свои сообщения
    Вы не можете голосовать в опросах
    Вы не можете прикреплять файлы к сообщениям
    Вы не можете скачивать файлы