BitTorrentTracker PerecTracker.org
BitTorrentTracker PerecTracker.org
    
Регистрация  ·  Вход
 
 · 
Забыли пароль?

  • Зверополис в 3Д / Zootopia 3D (Байрон Ховард, Рич Мур, Джаред Буш / Byron Howard, Rich Moore, Jared Bush) [2016, Мультфильм, Боевик, Комедия, Криминал, Приключения, Семейный, BDrip-AVC] iTunes, Half OverUnder / Вертикальная анаморфная стереопара

    Ответить на тему
     
    Автор Сообщение

    rechyn

    Создавать темы 07-Июн-2016 22:12

           

    [Цитировать]

    -Зверополис
    Zootopia
    -Год выпуска: 2016
    Страна: США (Walt Disney Animation Studios)
    Жанр: Мультфильм, Боевик, Комедия, Криминал, Приключения, Семейный
    Продолжительность: 01:48:32
    Перевод: Профессиональный дублированный - iTunes
    Режиссеры: Байрон Ховард, Рич Мур, Джаред Буш / Byron Howard, Rich Moore, Jared Bush-Роли озвучивали (дублировали):

    Judy Hopps - Джиннифер Гудвин (Мария Ивакова)
    Nick Wilde - Джейсон Бейтман (Антон Лаврентьев)
    Chief Bogo - Идрис Эльба (Борис Хасанов)
    Bellwether - Дженни Слейт (Мария Аронова)
    Clawhauser - Нейт Торренс (Андрей Мошков)
    Bonnie Hopps - Бонни Хант (Татьяна Шитова)
    Stu Hopps - Дон Лейк (Денис Некрасов)
    Yax - Томми Чонг (Денис Некрасов)
    Mayor Lionheart - Дж.К. Симмонс (Владимир Меньшов)
    Mrs. Otterton - Октавия Спенсер (Инга Сметанина)
    Duke Weaselton - Алан Тьюдик (Филипп Лебедев)
    Gazelle - Шакира (Варвара Чабан)
    Priscilla - Кристен Белл
    -Описание: Добро пожаловать в Зверополис — современный город, населенный самыми разными животными, от огромных слонов до крошечных мышек. Зверополис разделен на районы, полностью повторяющие естественную среду обитания разных жителей — здесь есть и элитный район Площадь Сахары и неприветливый Тундратаун. В этом городе появляется новый офицер полиции, жизнерадостная зайчиха Джуди Хоппс, которая с первых дней работы понимает, как сложно быть маленькой и пушистой среди больших и сильных полицейских. Джуди хватается за первую же возможность проявить себя, несмотря на то, что ее партнером будет болтливый хитрый лис Ник Уайлд. Вдвоем им предстоит раскрыть сложное дело, от которого будет зависеть судьба всех обитателей Зверополиса.-Доп.инфо: Видеоряд англоязычный.
    Главы проименованы.

    Знаете ли вы, что...

    Это первый из двух анимационных фильмов с участием Идриса Эльбы, предназначенный к выходу в 2016 году. Вторым будет «В поисках Дори».
    Персонаж Джуди Хоппс в исполнении Джиннифер Гудвин назван в честь персонажа Джуди Хоффс в исполнении Холли Робинсон Пит из сериала «Джамп стрит, 21» (1987).
    Дюка Хорьковица (в оригинале англ. Duke Weaselton) озвучивает Алан Тьюдик, который также озвучил герцога Варавского (в оригинале англ. Duke of Weselton) в мультфильме «Холодное сердце» (2013). Герцог по-английски «duke».
    В анимационном «Городе героев» (2014) в эпизоде полёта Бэймакса и Хиро можно увидеть постер «Зверополиса».
    На футляре телефона Хани Лемон из «Города героев» (2014) изображено главное действующее лицо «Зверополиса».
    Персонаж Ника Уайлда срисован с диснеевского Робина Гуда из одноимённого мультфильма, который тоже был лисом.
    Для актёра Алана Тьюдика это работа уже в четвёртом подряд мультфильме, который продюсирует «Walt Disney Animation Studios», после «Ральфа» (2012), «Холодного сердца» (2013) и «Города героев»(2014).
    Это уже третий мультфильм студии «Disney», в котором действуют антропоморфные животные и в котором нет ни людей, ни не-антропоморфных животных. Первыми двумя были «Робин Гуд» (1973) и «Цыплёнок Цыпа» (2005).
    Это первый анимационный фильм студии «Disney» после мультфильма «Медвежонок Винни и его друзья» (2011), премьера которого состоится не в ноябре.
    Премьера: 11 февраля 2016 (3 марта 2016)
    Релиз на Blu-Ray (DVD) (Россия): 3 июня 2016
    Бюджет: 0 000 000
    Кассовые сборы: 4 089 751
    Топ 250 Кинопоиска: №25 (28.05.2016г)
    Топ 250 IMDb: #152 (28.05.2016г)

    ..
    -Качество: BDRip (by Ash61)
    Контейнер: MKV
    Формат 3D: Half OverUnder / Вертикальная анаморфная стереопара
    Порядок ракурсов: левый ракурс первый-Видео: AVC / 1920х1080p / 23,976 fps / 8410 Kbps
    Аудио:
    #1 - Русский / AC3 / 48 KHz / 5.1 ch / 384 Kbps (Дубляж - iTunes)
    #2 - Английский / AC3 / 48 KHz / 5.1 ch / 640 Kbps (Original - BD 3D)
    Субтитры (внешние SRT UTF-8):
    #1 - Русские Полные
    #2 - Украинские Полные
    #3 - English Full

    MediaInfo

    General
    Unique ID : 211886863038987645285547286305432437329 (0x9F67ECE94D51478CA7DCEC39F0308251)
    Complete name : E:\Zootopia(2016)3D-halfOU(Ash61)iTunes\Zootopia(2016)3D-halfOU(Ash61)iTunes.mkv
    Format : Matroska
    Format version : Version 2
    File size : 7.33 GiB
    Duration : 1h 49mn
    Overall bit rate : 9 626 Kbps
    Movie name : Зверополис / Zootopia (2016) в 3Д
    Encoded date : UTC 2016-06-07 15:09:32
    Writing application : mkvmerge v5.8.0 ('No Sleep / Pillow') built on Sep 2 2012 15:37:04
    Writing library : libebml v1.2.3 + libmatroska v1.3.0
    Video
    ID : 1
    Format : AVC
    Format/Info : Advanced Video Codec
    Format profile : High@L4.1
    Format settings, CABAC : Yes
    Format settings, ReFrames : 4 frames
    Codec ID : V_MPEG4/ISO/AVC
    Duration : 1h 49mn
    Bit rate : 8 410 Kbps
    Width : 1 920 pixels
    Height : 1 080 pixels
    Display aspect ratio : 16:9
    Frame rate mode : Constant
    Frame rate : 23.976 fps
    Color space : YUV
    Chroma subsampling : 4:2:0
    Bit depth : 8 bits
    Scan type : Progressive
    Bits/(Pixel*Frame) : 0.169
    Stream size : 6.40 GiB (87%)
    Title : BDRip by Ash61 (видеоряд англоязычный)
    Writing library : x264 core 146 r2538 121396c
    Encoding settings : cabac=1 / ref=4 / deblock=1:-3:-3 / analyse=0x3:0x113 / me=umh / subme=10 / psy=1 / psy_rd=1.00:0.00 / mixed_ref=1 / me_range=32 / chroma_me=1 / trellis=2 / 8x8dct=1 / cqm=0 / deadzone=21,11 / fast_pskip=1 / chroma_qp_offset=-2 / threads=12 / lookahead_threads=3 / sliced_threads=0 / nr=0 / decimate=1 / interlaced=0 / bluray_compat=0 / constrained_intra=0 / bframes=10 / b_pyramid=2 / b_adapt=2 / b_bias=0 / direct=3 / weightb=1 / open_gop=0 / weightp=2 / keyint=250 / keyint_min=23 / scenecut=40 / intra_refresh=0 / rc_lookahead=60 / rc=crf / mbtree=1 / crf=15.5 / qcomp=0.70 / qpmin=0 / qpmax=69 / qpstep=4 / vbv_maxrate=40000 / vbv_bufsize=30000 / crf_max=0.0 / nal_hrd=none / filler=0 / frame-packing=4 / ip_ratio=1.40 / aq=1:0.70
    Language : English
    Default : Yes
    Forced : No
    Audio #1
    ID : 2
    Format : AC-3
    Format/Info : Audio Coding 3
    Mode extension : CM (complete main)
    Format settings, Endianness : Big
    Codec ID : A_AC3
    Duration : 1h 49mn
    Bit rate mode : Constant
    Bit rate : 384 Kbps
    Channel(s) : 6 channels
    Channel positions : Front: L C R, Side: L R, LFE
    Sampling rate : 48.0 KHz
    Bit depth : 16 bits
    Compression mode : Lossy
    Stream size : 299 MiB (4%)
    Title : Дубляж - iTunes
    Language : Russian
    Default : Yes
    Forced : No
    Audio #2
    ID : 3
    Format : AC-3
    Format/Info : Audio Coding 3
    Mode extension : CM (complete main)
    Format settings, Endianness : Big
    Codec ID : A_AC3
    Duration : 1h 49mn
    Bit rate mode : Constant
    Bit rate : 640 Kbps
    Channel(s) : 6 channels
    Channel positions : Front: L C R, Side: L R, LFE
    Sampling rate : 48.0 KHz
    Bit depth : 16 bits
    Compression mode : Lossy
    Stream size : 499 MiB (7%)
    Title : Original - BD 3D
    Language : English
    Default : No
    Forced : No
    Menu
    00:00:00.000 : :1. Prologue
    00:00:59.558 : :2. Gideon Grey
    00:05:50.098 : :3. The Police Academy
    00:10:05.562 : :4. Welcome to Zootopia
    00:14:31.537 : :5. Meter Maid Duty
    00:18:24.019 : :6. Pawpsicles
    00:26:03.353 : :7. The Weasel Chase
    00:30:57.438 : :8. It's Called a Hustle
    00:37:07.099 : :9. The Naturalist Club
    00:40:43.440 : :10. Department of Mammal Vehicles
    00:44:31.751 : :11. Mr. Big
    00:51:40.429 : :12. Manchas Goes Savage
    00:55:40.378 : :13. The Gondola
    01:00:48.268 : :14. Help From Bellwether
    01:03:37.855 : :15. Cliffside Asylum
    01:09:19.822 : :16. We Cracked the Case
    01:13:39.163 : :17. Hopps Gives Up
    01:17:07.372 : :18. Hopps' Apology
    01:21:52.364 : :19. Doug's Laboratory
    01:28:19.167 : :20. The Natural History Museum
    01:32:43.431 : :21. Epilogue
    01:36:12.140 : :22. End Credits

    Скриншоты

    Для оценки 3Д - Анимированные скрины




















    Скачать .torrent

    Скачать торрент-файл бесплатно и на максимальной скорости!

    Как скачивать? · Что такое торрент? · Рейтинг и ограничения

    !ВНИМАНИЕ!
    Сайт не распространяет и не хранит электронные версии произведений, а занимается лишь лишь предоставлением доступа к создаваемому пользователями каталогу ссылок на торрент-файлы, которые содержат только списки хеш-сумм, убедительная просьба с жалобами обращаться напрямую к пользователю. Файлы для обмена на трекере предоставлены пользователями сайта, и администрация не несёт ответственности за их содержание. Просьба не заливать файлы, защищенные авторскими правами, а также файлы нелегального содержания!


    _________________
    [Профиль] [ЛС]
    Показать сообщения:    
    Ответить на тему

    Текущее время: Сегодня, в 01:06

    Часовой пояс: GMT + 2



    Вы не можете начинать темы
    Вы не можете отвечать на сообщения
    Вы не можете редактировать свои сообщения
    Вы не можете удалять свои сообщения
    Вы не можете голосовать в опросах
    Вы не можете прикреплять файлы к сообщениям
    Вы не можете скачивать файлы