BitTorrentTracker PerecTracker.org
BitTorrentTracker PerecTracker.org
    
Регистрация  ·  Вход
 
 · 
Забыли пароль?

  • Красная Королева убивает семь раз / La Dama rossa uccide sette volte / The Lady in Red Kills Seven Times (Эмилио Миралья / Emilio Miraglia) [1972, Италия, триллер, джалло, BDRemux 1080p] 2x VO (Тимофеев, cmert) + Sub Rus, Eng + Original Ita

    Ответить на тему
     
    Автор Сообщение

    Light

    Создавать темы 07-Июн-2016 18:33

           

    [Цитировать]

    -Красная Королева убивает семь раз / La Dama rossa uccide sette volte / The Lady in Red Kills Seven Times-Страна: Италия
    Жанр: Триллер, джалло
    Год выпуска: 1972
    Продолжительность: 01:39:15-Перевод: Одноголосый закадровый Тимофеев? Немахов?
    Перевод 2: Одноголосый закадровый cmert
    Cубтитры: русские, английские
    Оригинальная аудиодорожка: итальянский-Режиссер: Эмилио Миралья / Emilio Miraglia
    В ролях: Барбара Буше, Марина Мальфатти, Сибил Даннинг, Уго Пальяйи, Марино Масе, Пиа Джанкаро, Рудольф Шюндлер, Мария Антониетта Гуидо, Нино Корда-Описание: Над дворянским родом Вильденбруков довлеет давнее проклятье. Много столетий назад между двумя сёстрами — Красной и Чёрной королевами шла непримиримая вражда, которая закончилась тем, что Чёрная королева убила Красную, нанеся последней семь ножевых ранений. Красная королева восстала из мёртвых и убила Чёрную королеву, а также ещё шестерых связанных с ней людей, дабы возместить всё количество полученных смертельных ранений. С тех пор обстоятельства противостояния Красной и Чёрной королев повторяются каждые сто лет. Наконец настал очередной период возобновления действия давнего проклятья. Мартин Хофман пытается защитить свою невесту Китти Вильденбрук от родового проклятья.-Релиз -Сэмпл-Тип релиза: BDRemux 1080p
    Контейнер: MKV
    Видео: MPEG-4 AVC Video / 35042 kbps / 1080p / 23.976 fps / 16:9 / High Profile 4.1
    Аудио: Russian / Dolby Digital Audio / 2.0 / 48 kHz / 192 kbps
    Аудио 2: Russian / Dolby Digital Audio / 2.0 / 48 kHz / 192 kbps
    Аудио 3: Italian / DTS-HD Master Audio / 1.0 / 48 kHz / 1058 kbps / 24-bit (DTS Core: 1.0 / 48 kHz / 768 kbps / 24-bit)
    Аудио 4: English / DTS-HD Master Audio / 1.0 / 48 kHz / 1045 kbps / 24-bit (DTS Core: 1.0 / 48 kHz / 768 kbps / 24-bit)
    Формат субтитров: softsub (SRT)

    MI

    GeneralUnique ID : 200326620404592575427898859852121549094 (0x96B580F1CBB4BD3F820A1D8E99BCA926)Complete name : P:\Джалло\Красная Королева убивает семь раз (1972. La Dama rossa uccide sette volte).mkvFormat : MatroskaFormat version : Version 4 / Version 2File size : 25.9 GiBDuration : 1h 39mnOverall bit rate mode : VariableOverall bit rate : 37.4 MbpsMovie name : Release for RuTrackerEncoded date : UTC 2016-06-05 21:36:08Writing application : mkvmerge v9.0.1 ('Obstacles') 64bitWriting library : libebml v1.3.3 + libmatroska v1.4.4Cover : YesAttachments : Cover.jpg
    VideoID : 1Format : AVCFormat/Info : Advanced Video CodecFormat profile : High@L4.1Format settings, CABAC : YesFormat settings, ReFrames : 3 framesCodec ID : V_MPEG4/ISO/AVCDuration : 1h 39mnBit rate mode : VariableBit rate : 35.0 MbpsMaximum bit rate : 38.0 MbpsWidth : 1 920 pixelsHeight : 1 080 pixelsDisplay aspect ratio : 16:9Frame rate mode : ConstantFrame rate : 23.976 (24000/1001) fpsColor space : YUVChroma subsampling : 4:2:0Bit depth : 8 bitsScan type : ProgressiveBits/(Pixel*Frame) : 0.704Stream size : 24.2 GiB (93%)Title : La dama rossa uccide sette volte 1972 1080p Blu-ray AVC DTS-HD MA 1.0-KarloffWriting library : x264 core 128 r2216 198a7eaEncoding settings : cabac=1 / ref=4 / deblock=0:-1:-1 / analyse=0x3:0x133 / me=umh / subme=10 / psy=1 / psy_rd=1.00:0.15 / mixed_ref=1 / me_range=24 / chroma_me=1 / trellis=2 / 8x8dct=1 / cqm=0 / deadzone=21,11 / fast_pskip=1 / chroma_qp_offset=-3 / threads=12 / lookahead_threads=2 / sliced_threads=0 / slices=4 / nr=0 / decimate=1 / interlaced=0 / bluray_compat=1 / constrained_intra=0 / bframes=3 / b_pyramid=1 / b_adapt=2 / b_bias=0 / direct=3 / weightb=1 / open_gop=1 / weightp=1 / keyint=24 / keyint_min=1 / scenecut=40 / intra_refresh=0 / rc_lookahead=24 / rc=abr / mbtree=1 / bitrate=35000 / ratetol=1.0 / qcomp=0.60 / qpmin=0 / qpmax=69 / qpstep=4 / vbv_maxrate=38000 / vbv_bufsize=28500 / nal_hrd=vbr / ip_ratio=1.40 / aq=1:1.00Language : ItalianDefault : YesForced : NoColor range : LimitedColor primaries : BT.709Transfer characteristics : BT.709Matrix coefficients : BT.709
    Audio #1ID : 2Format : AC-3Format/Info : Audio Coding 3Mode extension : CM (complete main)Format settings, Endianness : BigCodec ID : A_AC3Duration : 1h 39mnBit rate mode : ConstantBit rate : 192 KbpsChannel(s) : 2 channelsChannel positions : Front: L RSampling rate : 48.0 KHzFrame rate : 31.250 fps (1536 spf)Compression mode : LossyStream size : 136 MiB (1%)Title : VOLanguage : RussianDefault : YesForced : No
    Audio #2ID : 3Format : AC-3Format/Info : Audio Coding 3Mode extension : CM (complete main)Format settings, Endianness : BigCodec ID : A_AC3Duration : 1h 39mnBit rate mode : ConstantBit rate : 192 KbpsChannel(s) : 2 channelsChannel positions : Front: L RSampling rate : 48.0 KHzFrame rate : 31.250 fps (1536 spf)Compression mode : LossyStream size : 136 MiB (1%)Title : cmertLanguage : RussianDefault : NoForced : No
    Audio #3ID : 4Format : DTSFormat/Info : Digital Theater SystemsFormat profile : MA / CoreMode : 16Format settings, Endianness : BigCodec ID : A_DTSDuration : 1h 39mnBit rate mode : Variable / ConstantBit rate : 1 046 Kbps / 768 KbpsChannel(s) : 1 channelChannel positions : Front: CSampling rate : 48.0 KHzFrame rate : 93.750 fps (512 spf)Bit depth : 24 bitsCompression mode : Lossless / LossyStream size : 743 MiB (3%)Language : ItalianDefault : NoForced : No
    Audio #4ID : 5Format : DTSFormat/Info : Digital Theater SystemsFormat profile : MA / CoreMode : 16Format settings, Endianness : BigCodec ID : A_DTSDuration : 1h 39mnBit rate mode : Variable / ConstantBit rate : 1 024 Kbps / 768 KbpsChannel(s) : 1 channelChannel positions : Front: CSampling rate : 48.0 KHzFrame rate : 93.750 fps (512 spf)Bit depth : 24 bitsCompression mode : Lossless / LossyStream size : 730 MiB (3%)Language : EnglishDefault : NoForced : No
    Text #1ID : 6Format : UTF-8Codec ID : S_TEXT/UTF8Codec ID/Info : UTF-8 Plain TextDuration : 1h 37mnBit rate : 87 bpsCount of elements : 1071Stream size : 62.5 KiB (0%)Language : RussianDefault : NoForced : No
    Text #2ID : 7Format : UTF-8Codec ID : S_TEXT/UTF8Codec ID/Info : UTF-8 Plain TextDuration : 1h 37mnBit rate : 50 bpsCount of elements : 1023Stream size : 36.4 KiB (0%)Language : EnglishDefault : NoForced : No
    Text #3ID : 8Format : UTF-8Codec ID : S_TEXT/UTF8Codec ID/Info : UTF-8 Plain TextDuration : 1h 37mnBit rate : 64 bpsCount of elements : 1254Stream size : 45.8 KiB (0%)Title : SDHLanguage : EnglishDefault : NoForced : No
    Menu00:00:00.000 : en:00:00:00.00000:06:39.190 : en:00:06:39.19000:13:02.657 : en:00:13:02.65700:21:27.786 : en:00:21:27.78600:30:25.157 : en:00:30:25.15700:40:39.354 : en:00:40:39.35400:49:06.902 : en:00:49:06.90200:57:17.476 : en:00:57:17.47601:04:12.557 : en:01:04:12.55701:12:42.525 : en:01:12:42.52501:24:17.636 : en:01:24:17.63601:30:23.960 : en:01:30:23.960
    Скриншоты

    Зеркало


    Цитата:
    Цитата:

    • За оригинальный диск большое спасибо Karloff!
    • Озвучка cmert с этой раздачи. Спасибо Шнык!
    • Русские субтитры с этой. Спасибо kar_ex!
    • Сохранены оригинальные чаптеры как на Blu-ray.
    Скачать .torrent

    Скачать торрент-файл бесплатно и на максимальной скорости!

    Как скачивать? · Что такое торрент? · Рейтинг и ограничения

    !ВНИМАНИЕ!
    Сайт не распространяет и не хранит электронные версии произведений, а занимается лишь лишь предоставлением доступа к создаваемому пользователями каталогу ссылок на торрент-файлы, которые содержат только списки хеш-сумм, убедительная просьба с жалобами обращаться напрямую к пользователю. Файлы для обмена на трекере предоставлены пользователями сайта, и администрация не несёт ответственности за их содержание. Просьба не заливать файлы, защищенные авторскими правами, а также файлы нелегального содержания!


    _________________
    [Профиль] [ЛС]
    Показать сообщения:    
    Ответить на тему

    Текущее время: Сегодня, в 06:49

    Часовой пояс: GMT + 2



    Вы не можете начинать темы
    Вы не можете отвечать на сообщения
    Вы не можете редактировать свои сообщения
    Вы не можете удалять свои сообщения
    Вы не можете голосовать в опросах
    Вы не можете прикреплять файлы к сообщениям
    Вы не можете скачивать файлы