BitTorrentTracker PerecTracker.org
BitTorrentTracker PerecTracker.org
    
Регистрация  ·  Вход
 
 · 
Забыли пароль?

  • Сумасшедший дом / Madhouse (Том Ропелевски / Tom Ropelewski) [1990, США, комедия, BDRemux 1080p] MVO (НТВ+) + AVO (Вартан Дохалов) + Original Eng

    Ответить на тему
     
    Автор Сообщение

    Light

    Создавать темы 07-Июн-2016 18:32

           

    [Цитировать]

    Сумасшедший дом / Madhouse«The bad news is you have houseguests. There is no good news»
    Страна: США
    Жанр: комедия
    Год выпуска: 1990
    Продолжительность: 01:30:18
    Перевод 1: Профессиональный (многоголосый закадровый) НТВ+
    Перевод 2: Авторский (одноголосый закадровый) Вартан Дохалов
    Cубтитры: нет
    Оригинальная аудиодорожка: английский
    -
    Режиссер: Том Ропелевски / Tom Ropelewski
    В ролях: Джон Ларрокетт, Кёрсти Элли, Элисон Ла Плаца, Джон Дил, Джессика Ланди, Брэдли Грегг, Деннис Миллер, Роберт Гинти, Уэйн Типпит, Пол Айдинг
    -
    Описание: Марку и Джесси везет в жизни. У них есть все, о чем можно мечтать: счастливый брак, прекрасная работа, и недавно приобретенный дом в Санта-Монике почти на берегу океана, в котором они могут наслаждаться одиночеством вдвоем. Но вот один за другим к ним на постой потянулись многочисленные родственники, число непрошеных гостей достигает критической точки, и уютное семейное гнездышко превращается в настоящий «сумасшедший дом».

    Тип релиза: BDRemux 1080p
    Контейнер: MKV
    Видео: MPEG-4 AVC / NTSC 16:9 / 1920x1080 (1,85:1) / 30685 kbps / 23,976 fps / 0.634 bit/pixel / High@L4.1
    Аудио 1: Russian / Dolby Digital Audio / 2.0 Ch / 48 kHz / 192 kbps / 16 bit / MVO / НТВ+
    Аудио 2: Russian / Dolby Digital Audio / 2.0 Ch / 48 kHz / 192 kbps / 16 bit / AVO / Вартан Дохалов
    Аудио 3: English / DTS-HD Master Audio / 2.0 Ch / 48 kHz / 2138 kbps / 24-bit (DTS Core: 2.0 Ch / 48 kHz / 1509 kbps / 24-bit) / Original
    Навигация по главам: есть

    MediaInfo

    Общее
    Уникальный идентификатор : 246206268736602079673391002099006930990 (0xB9399A406D21DAFBAED3CF3FBD01802E)
    Полное имя : N:\BDRemux 1080p\Madhouse.1990.BDRemux.1080p.mkv
    Формат : Matroska
    Версия формата : Version 4 / Version 2
    Размер файла : 20,9 Гбайт
    Продолжительность : 1 ч. 30 м.
    Общий поток : 33,2 Мбит/сек
    Дата кодирования : UTC 2016-06-05 16:38:20
    Программа кодирования : mkvmerge v9.2.0 ('Photograph') 64bit
    Библиотека кодирования : libebml v1.3.3 + libmatroska v1.4.4
    Видео
    Идентификатор : 1
    Формат : AVC
    Формат/Информация : Advanced Video Codec
    Профиль формата : High@L4.1
    Параметр CABAC формата : Да
    Параметр ReFrames формата : 4 кадра
    Идентификатор кодека : V_MPEG4/ISO/AVC
    Продолжительность : 1 ч. 30 м.
    Вид битрейта : Постоянный
    Битрейт : 31,5 Мбит/сек
    Ширина : 1920 пикселей
    Высота : 1080 пикселей
    Соотношение сторон : 16:9
    Режим частоты кадров : Постоянный
    Частота кадров : 23,976 (24000/1001) кадра/сек
    Цветовое пространство : YUV
    Субдискретизация насыщенности : 4:2:0
    Битовая глубина : 8 бит
    Тип развёртки : Прогрессивная
    Бит/(Пиксели*Кадры) : 0.634
    Размер потока : 19,3 Гбайт (92%)
    Язык : English
    Default : Да
    Forced : Нет
    Аудио #1
    Идентификатор : 2
    Формат : AC-3
    Формат/Информация : Audio Coding 3
    Расширение режима : CM (complete main)
    Параметр Endianness формата : Big
    Идентификатор кодека : A_AC3
    Продолжительность : 1 ч. 30 м.
    Вид битрейта : Постоянный
    Битрейт : 192 Кбит/сек
    Каналы : 2 канала
    Расположение каналов : Front: L R
    Частота : 48,0 КГц
    Частота кадров : 31,250 кадров/сек (1536 spf)
    Метод сжатия : С потерями
    Размер потока : 124 Мбайт (1%)
    Заголовок : MVO / НТВ+
    Язык : Russian
    Default : Да
    Forced : Нет
    Аудио #2
    Идентификатор : 3
    Формат : AC-3
    Формат/Информация : Audio Coding 3
    Расширение режима : CM (complete main)
    Параметр Endianness формата : Big
    Идентификатор кодека : A_AC3
    Продолжительность : 1 ч. 30 м.
    Вид битрейта : Постоянный
    Битрейт : 192 Кбит/сек
    Каналы : 2 канала
    Расположение каналов : Front: L R
    Частота : 48,0 КГц
    Частота кадров : 31,250 кадров/сек (1536 spf)
    Метод сжатия : С потерями
    Размер потока : 124 Мбайт (1%)
    Заголовок : AVO / Вартан Дохалов
    Язык : Russian
    Default : Нет
    Forced : Нет
    Аудио #3
    Идентификатор : 4
    Формат : DTS
    Формат/Информация : Digital Theater Systems
    Профиль формата : MA / Core
    Режим : 16
    Параметр Endianness формата : Big
    Идентификатор кодека : A_DTS
    Продолжительность : 1 ч. 30 м.
    Вид битрейта : Переменный / Постоянный
    Битрейт : 2138 Кбит/сек / 1509 Кбит/сек
    Каналы : 2 канала
    Расположение каналов : Front: L R
    Частота : 48,0 КГц
    Частота кадров : 93,750 кадра/сек (512 spf)
    Битовая глубина : 24 бит
    Метод сжатия : Без потерь / Lossy
    Размер потока : 1,35 Гбайт (6%)
    Заголовок : Original
    Язык : English
    Default : Нет
    Forced : Нет
    Меню
    00:00:00.000 : en:CHAPTER 01
    00:00:10.927 : en:CHAPTER 02
    00:11:27.520 : en:CHAPTER 03
    00:25:18.225 : en:CHAPTER 04
    00:35:10.399 : en:CHAPTER 05
    00:50:12.843 : en:CHAPTER 06
    00:57:12.345 : en:CHAPTER 07
    01:10:49.870 : en:CHAPTER 08
    01:19:41.026 : en:CHAPTER 09
    01:30:29.340 : en:CHAPTER 10

    Скриншоты

    Скачать .torrent

    Скачать торрент-файл бесплатно и на максимальной скорости!

    Как скачивать? · Что такое торрент? · Рейтинг и ограничения

    !ВНИМАНИЕ!
    Сайт не распространяет и не хранит электронные версии произведений, а занимается лишь лишь предоставлением доступа к создаваемому пользователями каталогу ссылок на торрент-файлы, которые содержат только списки хеш-сумм, убедительная просьба с жалобами обращаться напрямую к пользователю. Файлы для обмена на трекере предоставлены пользователями сайта, и администрация не несёт ответственности за их содержание. Просьба не заливать файлы, защищенные авторскими правами, а также файлы нелегального содержания!


    _________________
    [Профиль] [ЛС]
    Показать сообщения:    
    Ответить на тему

    Текущее время: Сегодня, в 08:20

    Часовой пояс: GMT + 2



    Вы не можете начинать темы
    Вы не можете отвечать на сообщения
    Вы не можете редактировать свои сообщения
    Вы не можете удалять свои сообщения
    Вы не можете голосовать в опросах
    Вы не можете прикреплять файлы к сообщениям
    Вы не можете скачивать файлы