BitTorrentTracker PerecTracker.org
BitTorrentTracker PerecTracker.org
    
Регистрация  ·  Вход
 
 · 
Забыли пароль?

  • Взорвать Гитлера / Elser (Оливер Хиршбигель / Oliver Hirschbiegel) [2015, Германия, военная драма, HDRip] Dub (iTunes)

    Ответить на тему
     
    Автор Сообщение

    Light

    Создавать темы 07-Июн-2016 10:08

           

    [Цитировать]

    Взорвать Гитлера / Elser
    Страна: Германия
    Жанр: Военная драма
    Год выпуска: 2015
    Продолжительность: 01:53:48
    Перевод: Профессиональный (дублированный) iTunes
    Cубтитры: отсутствуют
    Оригинальная аудиодорожка: нет
    Режиссёр: Оливер Хиршбигель / Oliver Hirschbiegel
    В ролях: Кристиан Фридель, Катарина Шюттлер, Бургхард Клаусснер, Йохан фон Бюлов, Феликс Айтнер, Давид Циммершид, Рюдигер Клинк, Саймон Лихт, Корнелия Конгден, Михаэль Кранц, Герти Драссль, Михаэль Энерт, Удо Шенк, Томас Гресле, и др.
    Описание: Во время юбилейной речи Гитлера 8 ноября 1939 г. на швейцарской границе арестовали Георга Эльзера, плотника из Кёнигсброна. Всего через несколько минут в Мюнхене в Бюргербройкеллер позади кафедры, с которой ораторствовал фюреръ, взорвалась бомба. Погибли восемь человек. Когда у Эльзера наши взрыватель и план места взрыва, его отправили в Гестапо. Там он узнал, что его покушение не удалось, что Гитлер уехал из Бюргербройкеллер за 13 минут до взрыва. После допросов его направили сначала в Заксенхаузен, затем Дахау. Его казнили по личному распоряжению Гитлера 9 апреля 1945 г. всего за несколько дней до окончания войны...

    Качество видео: HDRip
    Формат видео: AVI
    Video: XviD 73 MPEG-4, 720x304 (2.35:1) 24.000 fps, ~1428 kbps avg, 0.272 bit/pixel
    Аudio: AC-3 Dolby Digital, CBR 384 kbps 6 ch (Front: L C R, Side: L R, LFE) 48.0 KHz

    MediaInfo

    ОбщееПолное имя : V:\Взорвать_Гитлера_2015_HDRip_[perectracker.org].aviФормат : AVIФормат/Информация : Audio Video InterleaveРазмер файла : 1,45 ГбайтПродолжительность : 1 ч. 53 м.Общий поток : 1821 Кбит/секНазвание фильма : Взорвать_Гитлера_2015_HDRip_[perectracker.org]Режиссёр : networkЖанр : Военная драмаПрограмма кодирования : VirtualDubModRus 1.5.10.2 (build 2542/release)Формат оригинала/Имя : Фильмы 2011-2015Правообладатель : networkПримечание : 5 июня 2016 г.
    ВидеоИдентификатор : 0Формат : MPEG-4 VisualПрофиль формата : Advanced Simple@L5Параметр BVOP формата : 1Параметр QPel формата : НетПараметр GMC формата : Без точки переходаПараметр матрицы формата : ВыборочнаяИдентификатор кодека : DX50Идентификатор кодека/Подсказка : DivX 5Продолжительность : 1 ч. 53 м.Битрейт : 1428 Кбит/секШирина : 720 пикселейВысота : 304 пикселяСоотношение сторон : 2,35:1Частота кадров : 24,000 кадра/секЦветовое пространство : YUVСубдискретизация насыщенности : 4:2:0Битовая глубина : 8 битТип развёртки : ПрогрессивнаяМетод сжатия : С потерямиБит/(Пиксели*Кадры) : 0.272Размер потока : 1,13 Гбайт (78%)Библиотека кодирования : XviD 73
    АудиоИдентификатор : 1Формат : AC-3Формат/Информация : Audio Coding 3Расширение режима : CM (complete main)Параметр Endianness формата : BigИдентификатор кодека : 2000Продолжительность : 1 ч. 53 м.Вид битрейта : ПостоянныйБитрейт : 384 Кбит/секКаналы : 6 каналовРасположение каналов : Front: L C R, Side: L R, LFEЧастота : 48,0 КГцБитовая глубина : 16 битМетод сжатия : С потерямиРазмер потока : 313 Мбайт (21%)Выравнивание : Разделение по промежуткамПродолжительность промежутка : 42 мс. (1,00 видеокадр)Время предзагрузки промежутка : 500 мс.

    Скриншот c названием фильма

    Скриншоты

    Время раздачи - по возможности.
    Скачать .torrent

    Скачать торрент-файл бесплатно и на максимальной скорости!

    Как скачивать? · Что такое торрент? · Рейтинг и ограничения

    !ВНИМАНИЕ!
    Сайт не распространяет и не хранит электронные версии произведений, а занимается лишь лишь предоставлением доступа к создаваемому пользователями каталогу ссылок на торрент-файлы, которые содержат только списки хеш-сумм, убедительная просьба с жалобами обращаться напрямую к пользователю. Файлы для обмена на трекере предоставлены пользователями сайта, и администрация не несёт ответственности за их содержание. Просьба не заливать файлы, защищенные авторскими правами, а также файлы нелегального содержания!


    _________________
    [Профиль] [ЛС]
    Показать сообщения:    
    Ответить на тему

    Текущее время: Сегодня, в 04:20

    Часовой пояс: GMT + 2



    Вы не можете начинать темы
    Вы не можете отвечать на сообщения
    Вы не можете редактировать свои сообщения
    Вы не можете удалять свои сообщения
    Вы не можете голосовать в опросах
    Вы не можете прикреплять файлы к сообщениям
    Вы не можете скачивать файлы