BitTorrentTracker PerecTracker.org
BitTorrentTracker PerecTracker.org
    
Регистрация  ·  Вход
 
 · 
Забыли пароль?

  • Никогда не сдавайся 3 / Never Back Down: No Surrender (Майкл Джей Уайт / Michael Jai White ) [2016, США, Боевик, WEB-DL, HD (720p)] MVO + Original + sub (rus, eng)

    Ответить на тему
     
    Автор Сообщение

    rechyn

    Создавать темы 07-Июн-2016 05:56

           

    [Цитировать]

    Никогда не сдавайся 3 / Never Back Down: No Surrender
    -
    -Год выпуска: 2016
    Страна: США
    Жанр: Боевик
    Продолжительность: 01:41:23
    Перевод: Многоголосый закадровый (iTunes)
    Оригинальная аудиодорожка: Есть
    Cубтитры: Русские, Английские
    Режиссёр: Майкл Джей Уайт
    Сценарий: Крис Хоти, Майкл Джей Уайт
    Продюсер: Крэйг Баумгартен, Марк Роупер, Майкл Шелби
    Оператор: Росс В. Кларксон
    Художник: Бунтови «Тор» Тоипасас, Нирачара Ванналай
    Монтаж: Скотт Рихтер
    В ролях: Майкл Джей Уайт, Джош Барнетт, Джиллиан Уайт, Йанин Висмитананда, Эсай Моралес, Стивен Квадрос, Нэйтан Джонс, Брахим Ачаббаке, Рон Смуренбург, Тони Джа
    Мировая премьера: 7 июня 2016
    Описание: Продолжение бойцовской франшизы о состязаниях по смешанным единоборствам и сопутствующих им закулисных страстях. Экс-звезда Кейс Уокер возвращается на ринг за очередной победой, но старой школе в его лице предстоит потягаться с новой школой.-Качество исходника: WEB-DL 720p (HDClub)
    Качество: WEB-DL
    Тип: HD (720p)
    Контейнер: M4V
    Видео: H.264, 1280x718, 16:9, 4 050 Kbps, 23.976 fps
    Аудио 1: Русский/Многоголосый закадровый (iTunes), AAC / 2.0 / 157 Kbps / 48.0 KHz
    Аудио 2: Английский/Оригинальная дорожка , AAC / 2.0 / 157 Kbps / 48.0 KHz
    Аудио 3: Русский/Многоголосый закадровый (iTunes), AC-3 / 5.1 / 384 Kbps / 48.0 KHz
    Аудио 4: Английский/Оригинальная дорожка , AC-3 / 5.1 / 384 Kbps / 48.0 KHz
    Субтитры 1: Русские полные
    Субтитры 2: Английские полные
    -

    iTunes Meta Tags

    Sort Name: Never Back Down: No Surrender
    XID: Apple:vendor_id:2016-919947
    contentID: 1110660881
    Copyright: © 2016 Sony Pictures Worldwide Acquisitions Inc. All Rights Reserved.
    Screenwriters: Крис Хоти, Майкл Джей Уайт
    Producers: Крэйг Баумгартен, Марк Роупер, Майкл Шелби
    Director: Майкл Джей Уайт
    Cast: Майкл Джей Уайт, Джош Барнетт, Джиллиан Уайт, Йанин Висмитананда, Эсай Моралес, Стивен Квадрос, Нэйтан Джонс, Брахим Ачаббаке, Рон Смуренбург, Тони Джа
    Studio: Stage 6 Films
    Rating: 5
    Long Description: Продолжение бойцовской франшизы о состязаниях по смешанным единоборствам и сопутствующих им закулисных страстях. Экс-звезда Кейс Уокер возвращается на ринг за очередной победой, но старой школе в его лице предстоит потягаться с новой школой.
    Description: Продолжение бойцовской франшизы о состязаниях по смешанным единоборствам и сопутствующих им закулисных страстях. Экс-звезда Кейс Уокер возвращается на ринг за очередной победой, но старой школе в его лице предстоит потягаться с новой школой.
    Release Date: 2016-06-07T08:00:00Z
    Genre: Action & Adventure
    Artist: Michael Jai White
    Name: Never Back Down: No Surrender

    MediaInfo

    General
    Complete name : /Users/imac/HandBrake/Never.Back.Down.No.Surrender.WEB-DL.720p.m4v
    Format : MPEG-4
    Codec ID : M4V
    File size : 3.64 GiB
    Duration : 1h 41mn
    Overall bit rate mode : Variable
    Overall bit rate : 5 143 Kbps
    Movie name : Never Back Down: No Surrender
    Performer : Michael Jai White
    Director : Майкл Джей Уайт
    Actor : Майкл Джей Уайт / Джош Барнетт / Джиллиан Уайт / Йанин Висмитананда / Эсай Моралес / Стивен Квадрос / Нэйтан Джонс / Брахим Ачаббаке / Рон Смуренбург / Тони Джа
    Screenplay by : Крис Хоти / Майкл Джей Уайт
    Producer : Крэйг Баумгартен / Марк Роупер / Майкл Шелби
    Production studio : Stage 6 Films
    Genre : Action & Adventure
    ContentType : Short Film
    Description : Продолжение бойцовской франшизы о состязаниях по смешанным единоборствам и сопутствующих им закулисных страстях. Экс-звезда Кейс Уокер возвращается на ринг за очередной победой, но старой школе в его лице предстоит потягаться с новой школой.
    Recorded date : UTC 2016-06-07 08:00:00
    Encoded date : UTC 2016-06-06 22:28:45
    Tagged date : UTC 2016-06-06 22:29:53
    Copyright : © 2016 Sony Pictures Worldwide Acquisitions Inc. All Rights Reserved.
    Cover : Yes
    Rating : None
    Title/Sort : Never Back Down: No Surrender
    LongDescription : Продолжение бойцовской франшизы о состязаниях по смешанным единоборствам и сопутствующих им закулисных страстях. Экс-звезда Кейс Уокер возвращается на ринг за очередной победой, но старой школе в его лице предстоит потягаться с новой школой.
    HDVideo : Yes
    AppleStoreCatalogID : 1110660881
    Vendor : Apple:vendor_id:2016-919947
    ContentRating : mpaa|R|400|
    Video #1
    ID : 1
    Format : AVC
    Format/Info : Advanced Video Codec
    Format profile : High@L3.1
    Format settings, CABAC : No
    Format settings, ReFrames : 2 frames
    Format settings, GOP : M=2, N=90
    Codec ID : avc1
    Codec ID/Info : Advanced Video Coding
    Duration : 1h 41mn
    Bit rate : 4 050 Kbps
    Width : 1 280 pixels
    Height : 718 pixels
    Display aspect ratio : 16:9
    Frame rate mode : Variable
    Frame rate : 23.976 fps
    Minimum frame rate : 23.810 fps
    Maximum frame rate : 24.390 fps
    Color space : YUV
    Chroma subsampling : 4:2:0
    Bit depth : 8 bits
    Scan type : Progressive
    Bits/(Pixel*Frame) : 0.184
    Stream size : 2.87 GiB (79%)
    Title : Main Program
    Language : English
    Encoded date : UTC 2016-06-06 22:28:45
    Tagged date : UTC 2016-06-06 22:28:51
    Color range : Limited
    Color primaries : BT.709
    Transfer characteristics : BT.709
    Matrix coefficients : BT.709
    Video #2
    ID : 9
    Format : JPEG
    Codec ID : jpeg
    Duration : 1h 41mn
    Bit rate mode : Variable
    Bit rate : 1 239 bps
    Width : 640 pixels
    Height : 359 pixels
    Display aspect ratio : 16:9
    Frame rate mode : Variable
    Frame rate : 0.003 fps
    Minimum frame rate : 0.002 fps
    Maximum frame rate : 0.004 fps
    Color space : YUV
    Chroma subsampling : 4:2:0
    Bit depth : 8 bits
    Compression mode : Lossy
    Bits/(Pixel*Frame) : 1.798
    Stream size : 807 KiB (0%)
    Title : Chapter Images
    Language : English
    Encoded date : UTC 2016-06-06 22:29:08
    Tagged date : UTC 2016-06-06 22:29:09
    Audio #1
    ID : 2
    Format : AAC
    Format/Info : Advanced Audio Codec
    Format profile : LC
    Codec ID : 40
    Duration : 1h 41mn
    Bit rate mode : Variable
    Bit rate : 157 Kbps
    Maximum bit rate : 230 Kbps
    Channel(s) : 2 channels
    Channel positions : Front: L R
    Sampling rate : 48.0 KHz
    Compression mode : Lossy
    Stream size : 114 MiB (3%)
    Title : Russian Stereo
    Language : Russian
    Encoded date : UTC 2016-06-06 22:28:45
    Tagged date : UTC 2016-06-06 22:28:53
    Audio #2
    ID : 3
    Format : AAC
    Format/Info : Advanced Audio Codec
    Format profile : LC
    Codec ID : 40
    Duration : 1h 41mn
    Bit rate mode : Variable
    Bit rate : 157 Kbps
    Maximum bit rate : 235 Kbps
    Channel(s) : 2 channels
    Channel positions : Front: L R
    Sampling rate : 48.0 KHz
    Compression mode : Lossy
    Stream size : 114 MiB (3%)
    Title : English Stereo
    Language : English
    Encoded date : UTC 2016-06-06 22:28:45
    Tagged date : UTC 2016-06-06 22:28:53
    Audio #3
    ID : 4
    Format : AC-3
    Format/Info : Audio Coding 3
    Mode extension : CM (complete main)
    Format settings, Endianness : Big
    Codec ID : ac-3
    Duration : 1h 41mn
    Bit rate mode : Constant
    Bit rate : 384 Kbps
    Channel(s) : 6 channels
    Channel positions : Front: L C R, Side: L R, LFE
    Sampling rate : 48.0 KHz
    Bit depth : 16 bits
    Compression mode : Lossy
    Stream size : 278 MiB (7%)
    Title : Russian DD 5.1
    Language : Russian
    Encoded date : UTC 2016-06-06 22:28:45
    Tagged date : UTC 2016-06-06 22:28:51
    Audio #4
    ID : 5
    Format : AC-3
    Format/Info : Audio Coding 3
    Mode extension : CM (complete main)
    Format settings, Endianness : Big
    Codec ID : ac-3
    Duration : 1h 41mn
    Bit rate mode : Constant
    Bit rate : 384 Kbps
    Channel(s) : 6 channels
    Channel positions : Front: L C R, Side: L R, LFE
    Sampling rate : 48.0 KHz
    Bit depth : 16 bits
    Compression mode : Lossy
    Stream size : 278 MiB (7%)
    Title : English DD 5.1
    Language : English
    Encoded date : UTC 2016-06-06 22:28:45
    Tagged date : UTC 2016-06-06 22:29:04
    Text #1
    ID : 6
    Format : Timed Text
    Muxing mode : sbtl
    Codec ID : tx3g
    Duration : 1h 37mn
    Bit rate mode : Variable
    Bit rate : 107 bps
    Stream size : 75.8 KiB (0%)
    Title : Russian full
    Language : Russian
    Encoded date : UTC 2016-06-06 22:28:45
    Tagged date : UTC 2016-06-06 22:28:51
    Text #2
    ID : 7
    Format : Timed Text
    Muxing mode : sbtl
    Codec ID : tx3g
    Duration : 1h 37mn
    Bit rate mode : Variable
    Bit rate : 75 bps
    Stream size : 53.1 KiB (0%)
    Title : English full
    Language : English
    Encoded date : UTC 2016-06-06 22:28:45
    Tagged date : UTC 2016-06-06 22:28:51
    Menu #1
    00:00:00.000 : 1
    00:05:48.807 : 2
    00:12:38.758 : 3
    00:18:37.032 : 4
    00:24:47.235 : 5
    00:31:19.585 : 6
    00:38:53.205 : 7
    00:45:19.966 : 8
    00:52:07.289 : 9
    00:59:06.625 : 10
    01:07:06.438 : 11
    01:12:34.641 : 12
    01:18:51.643 : 13
    01:24:17.593 : 14
    01:31:15.761 : 15
    01:36:48.051 : 16
    Menu #2
    ID : 8
    Codec ID : text
    Duration : 1h 41mn
    Language : English
    Encoded date : UTC 2016-06-06 22:29:04
    Tagged date : UTC 2016-06-06 22:29:04
    00:00:00.000 : 1
    00:05:48.807 : 2
    00:12:38.758 : 3
    00:18:37.032 : 4
    00:24:47.235 : 5
    00:31:19.585 : 6
    00:38:53.205 : 7
    00:45:19.966 : 8
    00:52:07.289 : 9
    00:59:06.625 : 10
    01:07:06.438 : 11
    01:12:34.641 : 12
    01:18:51.643 : 13
    01:24:17.593 : 14
    01:31:15.761 : 15
    01:36:48.051 : 16
    Bit rate mode : VBR

    Скриншоты

    -

    Релиз подготовлен для просмотра на Apple TV, iPad, iPhone, iPod Touch.
    Для просмотра данного релиза на компьютере с ОС Windows рекомендуется использовать VLC media player
    Скачать .torrent

    Скачать торрент-файл бесплатно и на максимальной скорости!

    Как скачивать? · Что такое торрент? · Рейтинг и ограничения

    !ВНИМАНИЕ!
    Сайт не распространяет и не хранит электронные версии произведений, а занимается лишь лишь предоставлением доступа к создаваемому пользователями каталогу ссылок на торрент-файлы, которые содержат только списки хеш-сумм, убедительная просьба с жалобами обращаться напрямую к пользователю. Файлы для обмена на трекере предоставлены пользователями сайта, и администрация не несёт ответственности за их содержание. Просьба не заливать файлы, защищенные авторскими правами, а также файлы нелегального содержания!


    _________________
    [Профиль] [ЛС]
    Показать сообщения:    
    Ответить на тему

    Текущее время: Сегодня, в 06:57

    Часовой пояс: GMT + 2



    Вы не можете начинать темы
    Вы не можете отвечать на сообщения
    Вы не можете редактировать свои сообщения
    Вы не можете удалять свои сообщения
    Вы не можете голосовать в опросах
    Вы не можете прикреплять файлы к сообщениям
    Вы не можете скачивать файлы