BitTorrentTracker PerecTracker.org
BitTorrentTracker PerecTracker.org
    
Регистрация  ·  Вход
 
 · 
Забыли пароль?

  • Зверополис / Zootopia (Байрон Ховард / Byron Howard, Рич Мур / Rich Moore, Джаред Буш / Jared Bush) [2016, США, Мультфильм, детский, семейный, комедия, приключения, HDRip] Dub (iTunes) + Original Eng

    Ответить на тему
     
    Автор Сообщение

    Flirldrerve

    Создавать темы 07-Июн-2016 01:51

           

    [Цитировать]

    Зверополис / Zootopia-«Welcome to the urban jungle»-Страна: США
    Жанр: Мультфильм, детский, семейный, комедия, приключени
    Продолжительность: 01:48:32
    Год выпуска: 2016-Перевод: Профессиональный (дублированный) - iTunes
    Русские субтитры: нет-Режиссёр: Байрон Ховард / Byron Howard, Рич Мур / Rich Moore, Джаред Буш / Jared Bush-Роли озвучивали: Джиннифер Гудвин, Джейсон Бейтмен, Идрис Эльба, Дженни Слейт, Нейт Торренс, Бонни Хант, Дон Лейк, Томми Чонг, Дж.К. Симмонс, Октавия Спенсер-Описание: Добро пожаловать в Зверополис — современный город, населенный самыми разными животными, от огромных слонов до крошечных мышек. Зверополис разделен на районы, полностью повторяющие естественную среду обитания разных жителей — здесь есть и элитный район Площадь Сахары и неприветливый Тундратаун. В этом городе появляется новый офицер полиции, жизнерадостная зайчиха Джуди Хоппс, которая с первых дней работы понимает, как сложно быть маленькой и пушистой среди больших и сильных полицейских. Джуди хватается за первую же возможность проявить себя, несмотря на то, что ее партнером будет болтливый хитрый лис Ник Уайлд. Вдвоем им предстоит раскрыть сложное дело, от которого будет зависеть судьба всех обитателей Зверополиса.

    Качество: HDRip
    Формат: AVI
    Видео: 720х304 (2.35:1), 23.976 fps, XviD build 50, 1919 Kbps, 0.36 bit/pixel
    Аудио 1: 48 kHz, AC3 Dolby Digital, 3/2 (L,C,R,l,r) + LFE ch, 384 kbps [Russ]
    Аудио 2: 48 kHz, AC3 Dolby Digital, 3/2 (L,C,R,l,r) + LFE ch, 384 kbps [Eng]
    Субтитры: отсутствуют

    Подробные технические данные

    General Complete name : Downloads\Zootopia.2016.HDRip.avi Format : AVI Format/Info : Audio Video Interleave Format profile : OpenDML File size : 2.04 GiB Duration : 1h 48mn Overall bit rate : 2 694 Kbps Writing application : AVI-Mux GUI 1.17.8.3, Feb 16 201019:42:50 Video #0 ID : 0 Format : MPEG-4 Visual Format profile : Advanced Simple@L5 Format settings, BVOP : 1 Format settings, QPel : No Format settings, GMC : No warppoints Format settings, Matrix : Default (MPEG) Codec ID : XVID Codec ID/Hint : XviD Duration : 1h 48mn Bit rate : 1 919 Kbps Width : 720 pixels Height : 304 pixels Display aspect ratio : 2.35:1 Frame rate : 23.976 fps Color space : YUV Chroma subsampling : 4:2:0 Bit depth : 8 bits Scan type : Progressive Compression mode : Lossy Bits/(Pixel*Frame) : 0.366 Stream size : 1.45 GiB (71%) Writing library : XviD 1.2.1 (UTC 2008-12-04) Audio #1 ID : 1 Format : AC-3 Format/Info : Audio Coding 3 Mode extension : CM (complete main) Format settings, Endianness : Big Codec ID : 2000 Duration : 1h 48mn Bit rate mode : Constant Bit rate : 384 Kbps Channel(s) : 6 channels Channel positions : Front: L C R, Side: L R, LFE Sampling rate : 48.0 KHz Bit depth : 16 bits Compression mode : Lossy Stream size : 298 MiB (14%) Alignment : Aligned on interleaves Interleave, duration : 64 ms (1.53 video frames) Interleave, preload duration : 192 ms Title : Zootopia_track7_fixed Audio #2 ID : 2 Format : AC-3 Format/Info : Audio Coding 3 Mode extension : CM (complete main) Format settings, Endianness : Big Codec ID : 2000 Duration : 1h 48mn Bit rate mode : Constant Bit rate : 384 Kbps Channel(s) : 6 channels Channel positions : Front: L C R, Side: L R, LFE Sampling rate : 48.0 KHz Bit depth : 16 bits Compression mode : Lossy Stream size : 298 MiB (14%) Alignment : Aligned on interleaves Interleave, duration : 64 ms (1.53 video frames) Interleave, preload duration : 192 ms Title : T2_Audio - English

    Скриншоты

    Скачать .torrent

    Скачать торрент-файл бесплатно и на максимальной скорости!

    Как скачивать? · Что такое торрент? · Рейтинг и ограничения

    !ВНИМАНИЕ!
    Сайт не распространяет и не хранит электронные версии произведений, а занимается лишь лишь предоставлением доступа к создаваемому пользователями каталогу ссылок на торрент-файлы, которые содержат только списки хеш-сумм, убедительная просьба с жалобами обращаться напрямую к пользователю. Файлы для обмена на трекере предоставлены пользователями сайта, и администрация не несёт ответственности за их содержание. Просьба не заливать файлы, защищенные авторскими правами, а также файлы нелегального содержания!


    _________________
    [Профиль] [ЛС]
    Показать сообщения:    
    Ответить на тему

    Текущее время: Сегодня, в 08:01

    Часовой пояс: GMT + 2



    Вы не можете начинать темы
    Вы не можете отвечать на сообщения
    Вы не можете редактировать свои сообщения
    Вы не можете удалять свои сообщения
    Вы не можете голосовать в опросах
    Вы не можете прикреплять файлы к сообщениям
    Вы не можете скачивать файлы