BitTorrentTracker PerecTracker.org
BitTorrentTracker PerecTracker.org
    
Регистрация  ·  Вход
 
 · 
Забыли пароль?

  • СышЫшьШоу / Сезон 2 Серии 30 из 30 (Александр Богданенко) [2015, Комедийный ситком, WEBRip]

    Ответить на тему
     
    Автор Сообщение

    rechyn

    Создавать темы 06-Июн-2016 22:51

           

    [Цитировать]

    СышЫшьШоу. Сезон 2Год выпуска: 2015
    Страна: Украина
    Жанр: Комедийный ситком
    Продолжительность: 30 x ~ 00:25:00
    Перевод: Не требуется
    Режиссер: Александр Богданенко
    Телеканал: НЛО ТV
    В ролях: Андрей Бурым, Константин Октябрьский, Дмитрий Соловьев, Феликс Аброскин
    Описание: Ситком Сышышьшоу покажет нам как живут гопники в провинциальных городках и с чем им приходиться сталкиваться. В главных ролях будут гопники с кличками Цезарь, Костыль, Дрон и Тайсон. Они познакомят нас с их бытом и покажут, как правильно отжимать телефон или бегать от милиции. Стоит заметить, что они всегда ходят только по парам, чем и привлекают свое внимание прохожих. В их арсенале обычный набор вещей гопника спортивки, кепка и семечки.
    Качество: WEBRip
    Формат: AVI
    Видео: XviD, 720x480, (3:2), 1800kbps, 25.000fps
    Аудио: MPEG-3, 256kbps, 44.1kHz, 2ch

    ВСЕ СЕРИИ

    Скриншоты

    MediaInfo

    D:\ÇÀÊÀ×ÊÀ\ÑûøÛøüØîó 2\Ñûøûøüøîó 2. Ñåðèÿ 15.avi
    General
    Complete name : D:\ÇÀÊÀ×ÊÀ\ÑûøÛøüØîó 2\Ñûøûøüøîó 2. Ñåðèÿ 15.avi
    Format : AVI
    Format/Info : Audio Video Interleave
    File size : 380 MiB
    Duration : 25mn 41s
    Overall bit rate : 2 069 Kbps
    Writing application : Lavf56.25.101
    Video #0
    ID : 0
    Format : xvid
    Codec ID : xvid
    Duration : 25mn 41s
    Bit rate : 1 800 Kbps
    Width : 720 pixels
    Height : 480 pixels
    Display aspect ratio : 3:2
    Frame rate : 25.000 fps
    Standard : NTSC
    Bits/(Pixel*Frame) : 0.208
    Stream size : 331 MiB (87%)
    Audio #1
    ID : 1
    Format : MPEG Audio
    Format version : Version 1
    Format profile : Layer 3
    Mode : Joint stereo
    Mode extension : MS Stereo
    Codec ID : 55
    Codec ID/Hint : MP3
    Duration : 25mn 41s
    Bit rate mode : Constant
    Bit rate : 256 Kbps
    Channel(s) : 2 channels
    Sampling rate : 44.1 KHz
    Compression mode : Lossy
    Stream size : 47.0 MiB (12%)
    Alignment : Aligned on interleaves
    Interleave, duration : 26 ms (0.65 video frame)
    Interleave, preload duration : 26 ms
    Writing library : LAME3.99.5
    Скачать .torrent

    Скачать торрент-файл бесплатно и на максимальной скорости!

    Как скачивать? · Что такое торрент? · Рейтинг и ограничения

    !ВНИМАНИЕ!
    Сайт не распространяет и не хранит электронные версии произведений, а занимается лишь лишь предоставлением доступа к создаваемому пользователями каталогу ссылок на торрент-файлы, которые содержат только списки хеш-сумм, убедительная просьба с жалобами обращаться напрямую к пользователю. Файлы для обмена на трекере предоставлены пользователями сайта, и администрация не несёт ответственности за их содержание. Просьба не заливать файлы, защищенные авторскими правами, а также файлы нелегального содержания!


    _________________
    [Профиль] [ЛС]
    Показать сообщения:    
    Ответить на тему

    Текущее время: Сегодня, в 12:20

    Часовой пояс: GMT + 2



    Вы не можете начинать темы
    Вы не можете отвечать на сообщения
    Вы не можете редактировать свои сообщения
    Вы не можете удалять свои сообщения
    Вы не можете голосовать в опросах
    Вы не можете прикреплять файлы к сообщениям
    Вы не можете скачивать файлы