Register  ·  Log in
Forgot password?

  • СышЫшьШоу / Сезон 2 Серии 30 из 30 (Александр Богданенко) [2015, Комедийный ситком, WEBRip]

    Reply to topic
    Author Message


    Post 06-Jun-2016 23:51



    СышЫшьШоу. Сезон 2Год выпуска: 2015
    Страна: Украина
    Жанр: Комедийный ситком
    Продолжительность: 30 x ~ 00:25:00
    Перевод: Не требуется
    Режиссер: Александр Богданенко
    Телеканал: НЛО ТV
    В ролях: Андрей Бурым, Константин Октябрьский, Дмитрий Соловьев, Феликс Аброскин
    Описание: Ситком Сышышьшоу покажет нам как живут гопники в провинциальных городках и с чем им приходиться сталкиваться. В главных ролях будут гопники с кличками Цезарь, Костыль, Дрон и Тайсон. Они познакомят нас с их бытом и покажут, как правильно отжимать телефон или бегать от милиции. Стоит заметить, что они всегда ходят только по парам, чем и привлекают свое внимание прохожих. В их арсенале обычный набор вещей гопника спортивки, кепка и семечки.
    Качество: WEBRip
    Формат: AVI
    Видео: XviD, 720x480, (3:2), 1800kbps, 25.000fps
    Аудио: MPEG-3, 256kbps, 44.1kHz, 2ch




    D:\ÇÀÊÀ×ÊÀ\ÑûøÛøüØîó 2\Ñûøûøüøîó 2. Ñåðèÿ 15.avi
    Complete name : D:\ÇÀÊÀ×ÊÀ\ÑûøÛøüØîó 2\Ñûøûøüøîó 2. Ñåðèÿ 15.avi
    Format : AVI
    Format/Info : Audio Video Interleave
    File size : 380 MiB
    Duration : 25mn 41s
    Overall bit rate : 2 069 Kbps
    Writing application : Lavf56.25.101
    Video #0
    ID : 0
    Format : xvid
    Codec ID : xvid
    Duration : 25mn 41s
    Bit rate : 1 800 Kbps
    Width : 720 pixels
    Height : 480 pixels
    Display aspect ratio : 3:2
    Frame rate : 25.000 fps
    Standard : NTSC
    Bits/(Pixel*Frame) : 0.208
    Stream size : 331 MiB (87%)
    Audio #1
    ID : 1
    Format : MPEG Audio
    Format version : Version 1
    Format profile : Layer 3
    Mode : Joint stereo
    Mode extension : MS Stereo
    Codec ID : 55
    Codec ID/Hint : MP3
    Duration : 25mn 41s
    Bit rate mode : Constant
    Bit rate : 256 Kbps
    Channel(s) : 2 channels
    Sampling rate : 44.1 KHz
    Compression mode : Lossy
    Stream size : 47.0 MiB (12%)
    Alignment : Aligned on interleaves
    Interleave, duration : 26 ms (0.65 video frame)
    Interleave, preload duration : 26 ms
    Writing library : LAME3.99.5
    Download .torrent

    Download free and at maximum speed!

    How to Download? · What is a torrent? · Ratings and Limitations

    The site does not extend and does not store electronic(digital) versions of products, and only gives access to a reference catalogue created by users on torrent-files which contain only lists of the hash-sums, the earnest entreaty, with complaints(abuse) to access directly to the user. Files for an exchange on tracker are given by users of a site, and the administration does not bear the responsibility for their maintenance. The request to not fill in the files protected by copyrights, and also files of the illegal maintenance!

    [Profile] [PM]
    Display posts from previous:    
    Reply to topic

    The time now is: Today 00:58

    All times are GMT + 3 Hours

    You cannot post new topics in this forum
    You cannot reply to topics in this forum
    You cannot edit your posts in this forum
    You cannot delete your posts in this forum
    You cannot vote in polls in this forum
    You cannot attach files in this forum
    You cannot download files in this forum