BitTorrentTracker PerecTracker.org
BitTorrentTracker PerecTracker.org
    
Регистрация  ·  Вход
 
 · 
Забыли пароль?

  • СышЫшьШоу / Сезон 1 Серии 14 из 14 (Александр Богданенко) [2014, Комедийный ситком, SATRip]

    Ответить на тему
     
    Автор Сообщение

    rechyn

    Создавать темы 06-Июн-2016 22:49

           

    [Цитировать]

    СышЫшьШоу
    Год выпуска: 2014
    Страна: Украина
    Жанр: Комедийный ситком
    Продолжительность: 14 x ~ 00:14:00
    Перевод: Не требуется
    Режиссер: Александр Богданенко
    Телеканал: НЛО ТV
    В ролях: Андрей Бурым, Константин Октябрьский, Дмитрий Соловьев, Феликс Аброскин
    Описание: "СышЫшьШоу" – это история дружбы четырех местных типочков. Все четверо ничем не отличаются от обычных представителей таких же районов, как и у них – кепка, спортивные штаны, семечки и специфический сленг. Они везде ходят по парам, так как четыре человека в спортивных костюмах, привлекают внимание доблестной милиции. В поисках легкой наживы, герои попадают в различные места и ситуации, где события развиваются совсем не так, как они планируют. "Наши герои – это представители 70% районов нашей стране. В каждом городе Украины есть своя Троещина и Борщаговка. Районы, гдепацаны ходят в спортивных костюмах, лаковых туфлях, в майках – и это считается абсолютно нормальным стилем".
    Качество: SATRip
    Формат: AVI
    Видео: DviX, 720x400, (16:9), ~1650kbps, 25.000fps
    Аудио: MPEG-3, 192kbps, 48.0kHz, 2ch

    ВСЕ СЕРИИ

    Скриншоты

    MediaInfo

    D:\ÇÀÊÀ×ÊÀ\ÑûøÛøüØîó\Sishish.shou.(10.serija).2014.DivX.SATRip.avi
    General
    Complete name : D:\ÇÀÊÀ×ÊÀ\ÑûøÛøüØîó\Sishish.shou.(10.serija).2014.DivX.SATRip.avi
    Format : AVI
    Format/Info : Audio Video Interleave
    File size : 141 MiB
    Duration : 10mn 37s
    Overall bit rate : 1 851 Kbps
    Writing library : VirtualDub build 32507/release
    Video #0
    ID : 0
    Format : MPEG-4 Visual
    Format settings, BVOP : 1
    Format settings, QPel : No
    Format settings, GMC : No warppoints
    Format settings, Matrix : Default (H.263)
    Muxing mode : Packed bitstream
    Codec ID : DX50
    Codec ID/Hint : DivX 5
    Duration : 10mn 37s
    Bit rate : 1 650 Kbps
    Width : 720 pixels
    Height : 400 pixels
    Display aspect ratio : 16:9
    Frame rate : 25.000 fps
    Color space : YUV
    Chroma subsampling : 4:2:0
    Bit depth : 8 bits
    Scan type : Progressive
    Compression mode : Lossy
    Bits/(Pixel*Frame) : 0.229
    Stream size : 125 MiB (89%)
    Writing library : DivX 6.8.5 (UTC 2009-08-20)
    Audio #1
    ID : 1
    Format : MPEG Audio
    Format version : Version 1
    Format profile : Layer 3
    Mode : Joint stereo
    Codec ID : 55
    Codec ID/Hint : MP3
    Duration : 10mn 37s
    Bit rate mode : Constant
    Bit rate : 192 Kbps
    Channel(s) : 2 channels
    Sampling rate : 48.0 KHz
    Compression mode : Lossy
    Stream size : 14.6 MiB (10%)
    Alignment : Split accross interleaves
    Interleave, duration : 40 ms (1.00 video frame)
    Interleave, preload duration : 500 ms
    Скачать .torrent

    Скачать торрент-файл бесплатно и на максимальной скорости!

    Как скачивать? · Что такое торрент? · Рейтинг и ограничения

    !ВНИМАНИЕ!
    Сайт не распространяет и не хранит электронные версии произведений, а занимается лишь лишь предоставлением доступа к создаваемому пользователями каталогу ссылок на торрент-файлы, которые содержат только списки хеш-сумм, убедительная просьба с жалобами обращаться напрямую к пользователю. Файлы для обмена на трекере предоставлены пользователями сайта, и администрация не несёт ответственности за их содержание. Просьба не заливать файлы, защищенные авторскими правами, а также файлы нелегального содержания!


    _________________
    [Профиль] [ЛС]
    Показать сообщения:    
    Ответить на тему

    Текущее время: Сегодня, в 12:45

    Часовой пояс: GMT + 2



    Вы не можете начинать темы
    Вы не можете отвечать на сообщения
    Вы не можете редактировать свои сообщения
    Вы не можете удалять свои сообщения
    Вы не можете голосовать в опросах
    Вы не можете прикреплять файлы к сообщениям
    Вы не можете скачивать файлы