BitTorrentTracker PerecTracker.org
BitTorrentTracker PerecTracker.org
    
Регистрация  ·  Вход
 
 · 
Забыли пароль?

  • Сладкая жизнь / Сезон: 3 / Серии: 1-7 из 7 (Андрей Джунковский) [2016, Комедия, WEBRip]

    Ответить на тему
     
    Автор Сообщение

    rechyn

    Создавать темы 06-Июн-2016 22:35

           

    [Цитировать]

    Сладкая жизнь-Год выпуска: 2016
    Производство: Good Story Media по заказу ТНТ
    Жанр: Комедия
    Продолжительность: 00:44:00
    Субтитры: Нет-Режиссёр: ]Андрей Джунковский-В ролях: Марта Носова, Никита Панфилов, Анастасия Меськова, Антон Денисенко, Мария Шумакова, Роман Маякин, Лукерья Ильяшенко, Анастасия Клюева, Николь Спиридонова, Павел Слепухов, Антон Батырев, Артур Бичахчян, Эдуард Мацаберидзе-Описание: Вадик должен за месяц выплатить восемь миллионов рублей, чтобы не оказаться в тюрьме. Игорь с Мишиной пытаются сохранить отношения, основанные на дружбе. Лера вдруг начинает понимать, что по-настоящему любит дядю Толю. Марк всё ещё мечтает о красивой жизни. Тигран купил квартиру в новостройке, но дядя Ашот делает все, чтобы Юля как можно дольше не уезжала из-под его крыла. Вадика освобождают по УДО, за месяц он должен выплатить залог в 8 миллионов рублей, чтобы не попасть в тюрьму. На соседнем участке поселилась семья — золотодобытчик из Якутии Вова с женой Софией. Денег много, а красиво тратить не умеют. А Вадик и Наташа любят красиво тратить деньги, но их катастрофически нет. Они решают развести Вову и Софию. Но чем больше они манипулируют соседями, тем сильнее запутываются в своих чувствах. Игорь с Мишиной пытаются сохранить отношения, основанные на дружбе. И когда у Мишиной появляется поклонник, молодой и успешный адвокат Артур, Игорю предстоит определиться – он что-то чувствует к ней или просто ей пользуется? Лера заключают брачный договор с дядей Толиком, по которому ей должна перейти трехкомнатная квартира в районе Садового кольца. Но для этого нужно соблюсти определенные условия, на которые Лера оказывается не готова.- -Все раздачи сериала-Качество: WEBRip
    Формат: AVI
    Видео кодек: XviD
    Аудио кодек: AC3
    Видео: 720x400 (16:9), 25.000 fps, XviD 73, 1799 Kbps, 0.25 bit/pixel
    Аудио: 48.0 kHz, AC3 Dolby Digital, 2 ch, 192 Kbps

    MI

    General
    Complete name : Downloads\Сладкая жизнь (3 сезон) (2016) WEB-DLRip
    Format : AVI
    Format/Info : Audio Video Interleave
    File size : 620 MiB
    Duration : 43mn 19s
    Overall bit rate : 2 001 Kbps
    Writing application : VirtualDubMod 1.5.10.3 | www.virtualdub-fr.org || (build 2550/release)
    Writing library : VirtualDubMod build 2550/release
    Video #0
    ID : 0
    Format : MPEG-4 Visual
    Format profile : Advanced Simple@L5
    Format settings, BVOP : 1
    Format settings, QPel : No
    Format settings, GMC : No warppoints
    Format settings, Matrix : Default (MPEG)
    Codec ID : XVID
    Codec ID/Hint : XviD
    Duration : 43mn 19s
    Bit rate : 1 799 Kbps
    Width : 720 pixels
    Height : 400 pixels
    Display aspect ratio : 16:9
    Frame rate : 25.000 fps
    Color space : YUV
    Chroma subsampling : 4:2:0
    Bit depth : 8 bits
    Scan type : Progressive
    Compression mode : Lossy
    Bits/(Pixel*Frame) : 0.250
    Stream size : 558 MiB (90%)
    Writing library : XviD 73
    Audio #1
    ID : 1
    Format : AC-3
    Format/Info : Audio Coding 3
    Mode extension : CM (complete main)
    Format settings, Endianness : Big
    Codec ID : 2000
    Duration : 43mn 19s
    Bit rate mode : Constant
    Bit rate : 192 Kbps
    Channel(s) : 2 channels
    Channel positions : Front: L R
    Sampling rate : 48.0 KHz
    Bit depth : 16 bits
    Compression mode : Lossy
    Stream size : 59.5 MiB (10%)
    Alignment : Split accross interleaves
    Interleave, duration : 40 ms (1.00 video frame)
    Interleave, preload duration : 500 ms

    Скриншоты

    -Реклама отсутствует!-
    Скачать .torrent

    Скачать торрент-файл бесплатно и на максимальной скорости!

    Как скачивать? · Что такое торрент? · Рейтинг и ограничения

    !ВНИМАНИЕ!
    Сайт не распространяет и не хранит электронные версии произведений, а занимается лишь лишь предоставлением доступа к создаваемому пользователями каталогу ссылок на торрент-файлы, которые содержат только списки хеш-сумм, убедительная просьба с жалобами обращаться напрямую к пользователю. Файлы для обмена на трекере предоставлены пользователями сайта, и администрация не несёт ответственности за их содержание. Просьба не заливать файлы, защищенные авторскими правами, а также файлы нелегального содержания!


    _________________
    [Профиль] [ЛС]
    Показать сообщения:    
    Ответить на тему

    Текущее время: Сегодня, в 16:17

    Часовой пояс: GMT + 2



    Вы не можете начинать темы
    Вы не можете отвечать на сообщения
    Вы не можете редактировать свои сообщения
    Вы не можете удалять свои сообщения
    Вы не можете голосовать в опросах
    Вы не можете прикреплять файлы к сообщениям
    Вы не можете скачивать файлы