BitTorrentTracker PerecTracker.org
BitTorrentTracker PerecTracker.org
    
Регистрация  ·  Вход
 
 · 
Забыли пароль?

  • День независимости / Independence Day (Роланд Эммерих / Roland Emmerich) [2-in-1: Theatrical & Extended Cut 20th Anniversary Edition] [1996, США, фантастика, боевик, приключения, Blu-ray disc 1080p] MVO + Sub Rus, Eng + Original Eng

    Ответить на тему
     
    Автор Сообщение

    Light

    Создавать темы 06-Июн-2016 21:40

           

    [Цитировать]

    День независимости / Independence Day
    Страна: США
    Жанр: фантастика, боевик, приключения
    Год выпуска: 1996
    Продолжительность: 02:24:48 | 02:33:33
      -Перевод: Профессиональный (многоголосый закадровый)
      Cубтитры: Английский, Арабский, Болгарский, Китайский, Хорватский, Чешский, Эстонский, Греческий, Иврит, Венгерский, Исландский, Индонезийский, Японский, Корейский, Латышский, Литовский, Польский, Португальский, Румынский, Русский, Словацкий, Словенский, Тайский, Турецкий
      Оригинальная аудиодорожка: английский
        -Режиссер: Роланд Эммерих / Roland Emmerich
          -В ролях: Уилл Смит, Билл Пуллман, Джефф Голдблюм, Мэри МакДоннел, Джудд Хирш, Роберт Лоджа, Рэнди Куэйд, Маргарет Колин, Вивика А. Фокс, Джеймс Ребхорн, Харви Фирстайн, Адам Болдуин, Брент Спайнер, Джеймс Дювал, Лиза Якуб, Джузеппе Эндрюс, Росс Бэгли, Билл Смитрович, Мэй Уитман, Харри Конник мл., Кирстен Уоррен
          Описание: На Земле принимается сигнал, посланный источником явно неземного происхождения. Источник этот приближается, и на «уши» поднимается вся планета. Никто, правда, не ожидал, что инопланетяне окажутся такими огромными и в таком количестве.
            -Тип релиза: Blu-ray disc
            Контейнер: BDMV
              -Видео: MPEG-4 AVC Video / 23669 kbps / 1080p / 23.976 fps / 16:9 / High Profile 4.1
                -Аудио 01: English / DTS-HD Master Audio / 5.1 / 48 kHz / 4259 kbps / 24-bit (DTS Core: 5.1 / 48 kHz / 1509 kbps / 24-bit)
                Аудио 02: Japanese / DTS Audio / 5.1 / 48 kHz / 768 kbps / 24-bit
                Аудио 03: Japanese / Dolby Digital Audio / 1.0 / 48 kHz / 192 kbps
                Аудио 04: Russian / DTS Audio / 5.1 / 48 kHz / 768 kbps / 24-bit
                Аудио 05: Czech / Dolby Digital Audio / 2.0 / 48 kHz / 224 kbps / Dolby Surround
                Аудио 06: Hungarian / Dolby Digital Audio / 5.1 / 48 kHz / 448 kbps
                Аудио 07: Chinese / Dolby Digital Audio / 2.0 / 48 kHz / 224 kbps / Dolby Surround
                Аудио 08: Polish / Dolby Digital EX Audio / 5.1-EX / 48 kHz / 448 kbps
                Аудио 09: Slovak / Dolby Digital Audio / 2.0 / 48 kHz / 224 kbps / Dolby Surround
                Аудио 10: Thai / Dolby Digital Audio / 5.1 / 48 kHz / 448 kbps
                Аудио 11: Turkish / Dolby Digital Audio / 2.0 / 48 kHz / 224 kbps / Dolby Surround
                Аудио 12: English / Dolby Digital Audio / 1.0 / 48 kHz / 192 kbps
                Аудио 13: English / Dolby Digital Audio / 2.0 / 48 kHz / 224 kbps / Dolby Surround
                Аудио 14: English / Dolby Digital Audio / 2.0 / 48 kHz / 224 kbps
                Аудио 15: English / Dolby Digital Audio / 1.0 / 48 kHz / 192 kbpsДополнительно
                Цитата:
                Цитата:

                CEE - Central Eastern Europe original release!
                На диске
                Комментарии режисёра Роланда Эммериха и продюсера Дина Дэвлина
                Комментарии художников по визуальным эффектам Фолкера Энгела и Дугласа Смита (только в версии для кинотеатров)
                "День независимости: возрождение" ролик для кинотеатров
                Notes: The glitch around the 27:23 minute mark of the Extended Cut (and also somewhere in the Theatrical Cut) is present on a second disc, therefor not a decryption glitch but a mastering error.

                BDInfo

                DISC INFO:
                Disc Title: Independence Day
                Disc Size: 44 463 194 522 bytes
                Protection: BD+
                BD-Java: Yes
                BDInfo: 0.5.8
                PLAYLIST REPORT:
                Name: 00801.MPLS
                Length: 2:33:33.370 (h:m:s.ms)
                Size: 41 155 565 568 bytes
                Total Bitrate: 35,74 Mbps
                (*) Indicates included stream hidden by this playlist.
                VIDEO:
                Codec Bitrate Description
                ----- ------- -----------
                MPEG-4 AVC Video 23669 kbps 1080p / 23,976 fps / 16:9 / High Profile 4.1
                AUDIO:
                Codec Language Bitrate Description
                ----- -------- ------- -----------
                DTS-HD Master Audio English 4259 kbps 5.1 / 48 kHz / 4259 kbps / 24-bit (DTS Core: 5.1 / 48 kHz / 1509 kbps / 24-bit)
                * DTS Audio Japanese 768 kbps 5.1 / 48 kHz / 768 kbps / 24-bit
                * Dolby Digital Audio Japanese 192 kbps 1.0 / 48 kHz / 192 kbps
                DTS Audio Russian 768 kbps 5.1 / 48 kHz / 768 kbps / 24-bit
                Dolby Digital Audio Czech 224 kbps 2.0 / 48 kHz / 224 kbps / Dolby Surround
                Dolby Digital Audio Hungarian 448 kbps 5.1 / 48 kHz / 448 kbps
                Dolby Digital Audio Chinese 224 kbps 2.0 / 48 kHz / 224 kbps / Dolby Surround
                Dolby Digital EX Audio Polish 448 kbps 5.1-EX / 48 kHz / 448 kbps
                Dolby Digital Audio Slovak 224 kbps 2.0 / 48 kHz / 224 kbps / Dolby Surround
                Dolby Digital Audio Thai 448 kbps 5.1 / 48 kHz / 448 kbps
                Dolby Digital Audio Turkish 224 kbps 2.0 / 48 kHz / 224 kbps / Dolby Surround
                * Dolby Digital Audio English 192 kbps 1.0 / 48 kHz / 192 kbps
                * Dolby Digital Audio English 224 kbps 2.0 / 48 kHz / 224 kbps / Dolby Surround
                * Dolby Digital Audio English 224 kbps 2.0 / 48 kHz / 224 kbps
                Dolby Digital Audio English 192 kbps 1.0 / 48 kHz / 192 kbps
                SUBTITLES:
                Codec Language Bitrate Description
                ----- -------- ------- -----------
                Presentation Graphics English 32,835 kbps
                * Presentation Graphics Japanese 19,277 kbps
                * Presentation Graphics Japanese 0,328 kbps
                * Presentation Graphics Japanese 1,876 kbps
                Presentation Graphics Russian 32,080 kbps
                Presentation Graphics Arabic 19,089 kbps
                Presentation Graphics Bulgarian 30,555 kbps
                Presentation Graphics Chinese 22,256 kbps
                Presentation Graphics Croatian 28,571 kbps
                Presentation Graphics Czech 29,581 kbps
                Presentation Graphics Estonian 27,546 kbps
                Presentation Graphics Greek 35,414 kbps
                Presentation Graphics Hebrew 21,103 kbps
                Presentation Graphics Hungarian 33,943 kbps
                Presentation Graphics Icelandic 33,582 kbps
                Presentation Graphics Indonesian 36,182 kbps
                Presentation Graphics Korean 22,587 kbps
                Presentation Graphics Latvian 28,307 kbps
                Presentation Graphics Lithuanian 25,603 kbps
                Presentation Graphics Chinese 28,613 kbps
                Presentation Graphics Chinese 20,798 kbps
                Presentation Graphics Polish 34,455 kbps
                Presentation Graphics Portuguese 31,227 kbps
                Presentation Graphics Romanian 30,364 kbps
                Presentation Graphics Slovak 31,015 kbps
                Presentation Graphics Slovenian 28,995 kbps
                Presentation Graphics Thai 25,272 kbps
                Presentation Graphics Turkish 30,253 kbps
                * Presentation Graphics Japanese 19,269 kbps
                * Presentation Graphics Japanese 27,927 kbps
                * Presentation Graphics English 16,856 kbps
                FILES:
                Name Time In Length Size Total Bitrate
                ---- ------- ------ ---- -------------
                00600.M2TS 0:00:00.000 0:06:06.240 1 632 626 688 35 662
                00621.M2TS 0:06:06.240 0:01:15.533 336 998 400 35 692
                00602.M2TS 0:07:21.774 0:06:17.627 1 698 287 616 35 978
                00622.M2TS 0:13:39.401 0:01:24.042 374 194 176 35 620
                00604.M2TS 0:15:03.444 0:20:08.498 5 451 644 928 36 089
                00623.M2TS 0:35:11.943 0:01:33.593 413 995 008 35 387
                00606.M2TS 0:36:45.536 0:02:19.973 635 111 424 36 299
                00624.M2TS 0:39:05.509 0:02:36.156 691 746 816 35 439
                00608.M2TS 0:41:41.665 0:02:15.635 618 055 680 36 454
                00625.M2TS 0:43:57.301 0:00:55.805 249 790 464 35 809
                00610.M2TS 0:44:53.106 0:13:12.041 3 554 340 864 35 901
                00633.M2TS 0:58:05.148 0:00:38.079 175 220 736 36 811
                00632.M2TS 0:58:43.227 0:08:25.880 2 285 869 056 36 149
                00626.M2TS 1:07:09.108 0:01:25.293 376 768 512 35 339
                00612.M2TS 1:08:34.401 0:02:55.258 793 503 744 36 221
                00627.M2TS 1:11:29.660 0:00:47.130 205 424 640 34 869
                00614.M2TS 1:12:16.790 0:08:15.453 2 212 620 288 35 727
                00628.M2TS 1:20:32.243 0:03:39.636 978 450 432 35 639
                00616.M2TS 1:24:11.879 0:19:53.025 5 322 528 768 35 691
                00629.M2TS 1:44:04.905 0:01:13.198 329 699 328 36 034
                00618.M2TS 1:45:18.103 0:25:32.572 6 892 818 432 35 980
                00630.M2TS 2:10:50.675 0:01:06.816 295 065 600 35 328
                00620.M2TS 2:11:57.492 0:21:35.877 5 630 803 968 34 761
                DISC INFO:
                Disc Title: Independence Day
                Disc Size: 44 463 194 522 bytes
                Protection: BD+
                BD-Java: Yes
                BDInfo: 0.5.8
                PLAYLIST REPORT:
                Name: 00800.MPLS
                Length: 2:24:48.679 (h:m:s.ms)
                Size: 38 854 385 664 bytes
                Total Bitrate: 35,77 Mbps
                (*) Indicates included stream hidden by this playlist.
                VIDEO:
                Codec Bitrate Description
                ----- ------- -----------
                MPEG-4 AVC Video 23668 kbps 1080p / 23,976 fps / 16:9 / High Profile 4.1
                AUDIO:
                Codec Language Bitrate Description
                ----- -------- ------- -----------
                DTS-HD Master Audio English 4309 kbps 5.1 / 48 kHz / 4309 kbps / 24-bit (DTS Core: 5.1 / 48 kHz / 1509 kbps / 24-bit)
                * DTS Audio Japanese 768 kbps 5.1 / 48 kHz / 768 kbps / 24-bit
                * Dolby Digital Audio Japanese 192 kbps 1.0 / 48 kHz / 192 kbps
                DTS Audio Russian 768 kbps 5.1 / 48 kHz / 768 kbps / 24-bit
                Dolby Digital Audio Czech 224 kbps 2.0 / 48 kHz / 224 kbps / Dolby Surround
                Dolby Digital Audio Hungarian 448 kbps 5.1 / 48 kHz / 448 kbps
                Dolby Digital Audio Chinese 224 kbps 2.0 / 48 kHz / 224 kbps / Dolby Surround
                Dolby Digital EX Audio Polish 448 kbps 5.1-EX / 48 kHz / 448 kbps
                Dolby Digital Audio Slovak 224 kbps 2.0 / 48 kHz / 224 kbps / Dolby Surround
                Dolby Digital Audio Thai 448 kbps 5.1 / 48 kHz / 448 kbps
                Dolby Digital Audio Turkish 224 kbps 2.0 / 48 kHz / 224 kbps / Dolby Surround
                Dolby Digital Audio English 192 kbps 1.0 / 48 kHz / 192 kbps
                Dolby Digital Audio English 224 kbps 2.0 / 48 kHz / 224 kbps / Dolby Surround
                * Dolby Digital Audio English 224 kbps 2.0 / 48 kHz / 224 kbps
                * Dolby Digital Audio English 192 kbps 1.0 / 48 kHz / 192 kbps
                SUBTITLES:
                Codec Language Bitrate Description
                ----- -------- ------- -----------
                Presentation Graphics English 31,970 kbps
                * Presentation Graphics Japanese 18,849 kbps
                * Presentation Graphics Japanese 0,347 kbps
                * Presentation Graphics Japanese 0,303 kbps
                Presentation Graphics Russian 31,630 kbps
                Presentation Graphics Arabic 18,791 kbps
                Presentation Graphics Bulgarian 30,239 kbps
                Presentation Graphics Chinese 21,678 kbps
                Presentation Graphics Croatian 28,269 kbps
                Presentation Graphics Czech 29,253 kbps
                Presentation Graphics Estonian 26,319 kbps
                Presentation Graphics Greek 35,117 kbps
                Presentation Graphics Hebrew 20,667 kbps
                Presentation Graphics Hungarian 33,564 kbps
                Presentation Graphics Icelandic 33,127 kbps
                Presentation Graphics Indonesian 35,568 kbps
                Presentation Graphics Korean 21,837 kbps
                Presentation Graphics Latvian 27,969 kbps
                Presentation Graphics Lithuanian 24,203 kbps
                Presentation Graphics Chinese 28,021 kbps
                Presentation Graphics Chinese 19,472 kbps
                Presentation Graphics Polish 34,119 kbps
                Presentation Graphics Portuguese 30,872 kbps
                Presentation Graphics Romanian 29,995 kbps
                Presentation Graphics Slovak 30,632 kbps
                Presentation Graphics Slovenian 28,379 kbps
                Presentation Graphics Thai 24,540 kbps
                Presentation Graphics Turkish 29,789 kbps
                * Presentation Graphics Japanese 19,503 kbps
                * Presentation Graphics Japanese 31,383 kbps
                Presentation Graphics English 19,479 kbps
                FILES:
                Name Time In Length Size Total Bitrate
                ---- ------- ------ ---- -------------
                00600.M2TS 0:00:00.000 0:06:06.240 1 632 626 688 35 662
                00601.M2TS 0:06:06.240 0:00:48.631 221 706 240 36 471
                00602.M2TS 0:06:54.872 0:06:17.627 1 698 287 616 35 978
                00603.M2TS 0:13:12.500 0:00:26.943 121 288 704 36 013
                00604.M2TS 0:13:39.443 0:20:08.498 5 451 644 928 36 089
                00605.M2TS 0:33:47.942 0:00:35.744 163 209 216 36 528
                00606.M2TS 0:34:23.686 0:02:19.973 635 111 424 36 299
                00607.M2TS 0:36:43.659 0:00:59.768 271 017 984 36 276
                00608.M2TS 0:37:43.427 0:02:15.635 618 055 680 36 454
                00609.M2TS 0:39:59.063 0:00:33.533 151 474 176 36 137
                00610.M2TS 0:40:32.596 0:13:12.041 3 554 340 864 35 901
                00631.M2TS 0:53:44.637 0:00:38.121 174 415 872 36 602
                00632.M2TS 0:54:22.759 0:08:25.880 2 285 869 056 36 149
                00611.M2TS 1:02:48.639 0:00:43.043 192 516 096 35 781
                00612.M2TS 1:03:31.682 0:02:55.258 793 503 744 36 221
                00613.M2TS 1:06:26.941 0:00:19.728 87 625 728 35 533
                00614.M2TS 1:06:46.669 0:08:15.453 2 212 620 288 35 727
                00615.M2TS 1:15:02.122 0:01:05.023 292 503 552 35 988
                00616.M2TS 1:16:07.145 0:19:53.025 5 322 528 768 35 691
                00617.M2TS 1:36:00.170 0:01:13.198 329 097 216 35 968
                00618.M2TS 1:37:13.369 0:25:32.572 6 892 818 432 35 980
                00619.M2TS 2:02:45.941 0:00:26.860 121 319 424 36 134
                00620.M2TS 2:03:12.801 0:21:35.877 5 630 803 968 34 761

                Скриншоты

                Скачать .torrent

                Скачать торрент-файл бесплатно и на максимальной скорости!

                Как скачивать? · Что такое торрент? · Рейтинг и ограничения

                !ВНИМАНИЕ!
                Сайт не распространяет и не хранит электронные версии произведений, а занимается лишь лишь предоставлением доступа к создаваемому пользователями каталогу ссылок на торрент-файлы, которые содержат только списки хеш-сумм, убедительная просьба с жалобами обращаться напрямую к пользователю. Файлы для обмена на трекере предоставлены пользователями сайта, и администрация не несёт ответственности за их содержание. Просьба не заливать файлы, защищенные авторскими правами, а также файлы нелегального содержания!


                _________________
                [Профиль] [ЛС]
                Показать сообщения:    
                Ответить на тему

                Текущее время: Сегодня, в 15:36

                Часовой пояс: GMT + 2



                Вы не можете начинать темы
                Вы не можете отвечать на сообщения
                Вы не можете редактировать свои сообщения
                Вы не можете удалять свои сообщения
                Вы не можете голосовать в опросах
                Вы не можете прикреплять файлы к сообщениям
                Вы не можете скачивать файлы