BitTorrentTracker PerecTracker.org
BitTorrentTracker PerecTracker.org
    
Регистрация  ·  Вход
 
 · 
Забыли пароль?

  • Реальные упыри / Что мы делаем в темноте / What We Do in the Shadows (Джемейн Клемент / Jemaine Clemen, Таика Вайтити / Taika Waititi) [2014, Новая Зеландия, США, Комедия, BDRip 1080p] Dub (iTunes) + DVO (Ozztv) + Sub Rus, Eng + Original Eng

    Ответить на тему
     
    Автор Сообщение

    Light

    Создавать темы 06-Июн-2016 17:28

           

    [Цитировать]

    -Что мы делаем в темноте / Реальные упыри / What We Do in the Shadows-Страна: Новая Зеландия, США
    Студия: Unison Films, Defender Films, Funny or Die
    Жанр: Комедия
    Год выпуска: 2014
    Продолжительность: 01:25:31-Перевод: Профессиональный (дублированный) iTunes
    Перевод 2: Профессиональный (двухголосый закадровый) Ozztv
    Cубтитры: русские, английские
    Оригинальная аудиодорожка: английский-Режиссер: Джемейн Клемент / Jemaine Clemen, Таика Вайтити / Taika Waititi
    В ролях: Джемейн Клемент, Таика Вайтити, Джеки Ван Бик, Риз Дэрби, Бен Френшам, Марио Джая, Бен Харкорт, Айзек Херон, Коэн Холлоуэй, Джейсон Хойте, Аарон Джексон, Натан Майстер, Майк Миноуг-Описание: История жизни Виаго, Дикона и Владислава - трёх соседей и по совместительству бессмертных вампиров, которые всего лишь пытаются выжить в современном мире, где есть арендная плата, фейсконтроль в ночных клубах, губительный солнечный свет и другие неприятности.-Сэмпл-Тип релиза: BDRip 1080p
    Контейнер: MKV
    Видео: MPEG-4 AVC Video 17900 kbps 1920x1040p / 23,976 fps / High Profile 4.1
    Аудио: Russian / Dolby Digital Audio / 5.1 / 48 kHz / 384 kbps
    Аудио 2: Russian / DTS Audio 5.1 / 48 kHz / 1509 kbps
    Аудио 3: English / DTS Audio 5.1 / 48 kHz / 1509 kbps
    Формат субтитров: softsub (SRT)

    Видеоряд от DON

    Info
    RUNTIME.......: 1h 25mnSIZE..........: 11.8 GiBVIDEO CODEC...: x264, CRF 18.2, L4.1FRAMERATE.....: 24.000 fpsBITRATE.......: 17.9 MbpsRESOLUTION....: 1920x1040AUDIO ........: English 5.1ch DTS @ 1 509 KbpsSUBTITLES.....: English,GreekCHAPTERS/NAMED: Yes / NoSOURCE........: What We Do in the Shadows 2014 1080p AUS Blu-ray AVC DTS-HD MA 5.1(thanks!)
    x264 info
    profile High, level 4.1x264 [info]: frame I:806 Avg QP:15.70 size:229088x264 [info]: frame P:23769 Avg QP:17.00 size:148773x264 [info]: frame B:98400 Avg QP:18.47 size: 80987x264 [info]: consecutive B-frames: 1.6% 1.6% 4.9% 8.2% 9.9% 64.0% 4.5% 0.5% 2.5% 1.0% 1.2%x264 [info]: kb/s:18251.40encoded 122975 frames, 2.368 fps, 18251.40 kb/s, 11148 MB
    -
    -Сравнение с исходником: https://someimage.com/J5wh

    MI

    GeneralUnique ID : 234680953189303647570084899321718984850 (0xB08DE852BC989ADCACF0B9052AC35092)Complete name : S:\На хранении\Реальные упыри (2014. What We Do in the Shadows) 1080p.mkvFormat : MatroskaFormat version : Version 4 / Version 2File size : 12.9 GiBDuration : 1h 25mnOverall bit rate : 21.7 MbpsMovie name : Release for RuTrackerEncoded date : UTC 2016-06-03 22:02:29Writing application : mkvmerge v9.0.1 ('Obstacles') 64bitWriting library : libebml v1.3.3 + libmatroska v1.4.4Cover : YesAttachments : Cover.jpg
    VideoID : 1Format : AVCFormat/Info : Advanced Video CodecFormat profile : High@L4.1Format settings, CABAC : YesFormat settings, ReFrames : 4 framesCodec ID : V_MPEG4/ISO/AVCDuration : 1h 25mnBit rate : 18.3 MbpsWidth : 1 920 pixelsHeight : 1 040 pixelsDisplay aspect ratio : 1.85:1Frame rate mode : ConstantFrame rate : 24.000 fpsColor space : YUVChroma subsampling : 4:2:0Bit depth : 8 bitsScan type : ProgressiveBits/(Pixel*Frame) : 0.381Stream size : 10.9 GiB (84%)Title : What.We.Do.in.the.Shadows.2014.1080p.BluRay.DTS.x264-DONWriting library : x264 core 142 r2431+42 c69a006 tMod [8-bit@all X86_64]Encoding settings : cabac=1 / ref=4 / deblock=1:-3:-3 / analyse=0x3:0x133 / me=esa / subme=10 / psy=1 / fade_compensate=0.00 / psy_rd=0.95:0.00 / mixed_ref=1 / me_range=32 / chroma_me=1 / trellis=2 / 8x8dct=1 / cqm=0 / deadzone=21,11 / fast_pskip=0 / chroma_qp_offset=-2 / threads=12 / lookahead_threads=3 / sliced_threads=0 / nr=0 / decimate=1 / interlaced=0 / bluray_compat=0 / constrained_intra=0 / fgo=0 / bframes=10 / b_pyramid=2 / b_adapt=2 / b_bias=0 / direct=3 / weightb=1 / open_gop=0 / weightp=2 / keyint=241 / keyint_min=24 / scenecut=40 / intra_refresh=0 / rc_lookahead=60 / rc=crf / mbtree=0 / crf=18.2000 / qcomp=0.65 / qpmin=0:0:0 / qpmax=69:69:69 / qpstep=4 / vbv_maxrate=50000 / vbv_bufsize=62500 / crf_max=0.0 / nal_hrd=none / filler=0 / ip_ratio=1.30 / pb_ratio=1.20 / aq=4:0.80 / aq-sensitivity=10.00 / aq-factor=1.00:1.00:1.00 / aq2=0 / aq3=0Language : EnglishDefault : YesForced : No
    Audio #1ID : 2Format : AC-3Format/Info : Audio Coding 3Mode extension : CM (complete main)Format settings, Endianness : BigCodec ID : A_AC3Duration : 1h 25mnBit rate mode : ConstantBit rate : 384 KbpsChannel(s) : 6 channelsChannel positions : Front: L C R, Side: L R, LFESampling rate : 48.0 KHzFrame rate : 31.250 fps (1536 spf)Compression mode : LossyStream size : 235 MiB (2%)Title : ДубляжLanguage : RussianDefault : YesForced : No
    Audio #2ID : 3Format : DTSFormat/Info : Digital Theater SystemsMode : 16Format settings, Endianness : BigCodec ID : A_DTSDuration : 1h 25mnBit rate mode : ConstantBit rate : 1 509 KbpsChannel(s) : 6 channelsChannel positions : Front: L C R, Side: L R, LFESampling rate : 48.0 KHzFrame rate : 93.750 fps (512 spf)Bit depth : 24 bitsCompression mode : LossyStream size : 922 MiB (7%)Title : DVO [Ozz.tv]Language : RussianDefault : NoForced : No
    Audio #3ID : 4Format : DTSFormat/Info : Digital Theater SystemsMode : 16Format settings, Endianness : BigCodec ID : A_DTSDuration : 1h 25mnBit rate mode : ConstantBit rate : 1 509 KbpsChannel(s) : 6 channelsChannel positions : Front: L C R, Side: L R, LFESampling rate : 48.0 KHzFrame rate : 93.750 fps (512 spf)Bit depth : 24 bitsCompression mode : LossyStream size : 922 MiB (7%)Language : EnglishDefault : NoForced : No
    Text #1ID : 5Format : UTF-8Codec ID : S_TEXT/UTF8Codec ID/Info : UTF-8 Plain TextDuration : 1h 24mnBit rate : 130 bpsCount of elements : 1569Stream size : 80.9 KiB (0%)Title : Перевод Петра КарасеваLanguage : RussianDefault : NoForced : No
    Text #2ID : 6Format : UTF-8Codec ID : S_TEXT/UTF8Codec ID/Info : UTF-8 Plain TextDuration : 1h 23mnBit rate : 83 bpsCount of elements : 1595Stream size : 51.1 KiB (0%)Language : EnglishDefault : NoForced : No
    Menu00:00:00.000 : en:Chapter 100:09:20.083 : en:Chapter 200:15:43.750 : en:Chapter 300:22:30.042 : en:Chapter 400:28:03.042 : en:Chapter 500:35:17.875 : en:Chapter 600:42:31.542 : en:Chapter 700:48:28.333 : en:Chapter 800:57:18.625 : en:Chapter 901:01:14.333 : en:Chapter 1001:14:00.500 : en:Chapter 1101:22:01.750 : en:Chapter 12
    Скриншоты

    Зеркало


    Скачать .torrent

    Скачать торрент-файл бесплатно и на максимальной скорости!

    Как скачивать? · Что такое торрент? · Рейтинг и ограничения

    !ВНИМАНИЕ!
    Сайт не распространяет и не хранит электронные версии произведений, а занимается лишь лишь предоставлением доступа к создаваемому пользователями каталогу ссылок на торрент-файлы, которые содержат только списки хеш-сумм, убедительная просьба с жалобами обращаться напрямую к пользователю. Файлы для обмена на трекере предоставлены пользователями сайта, и администрация не несёт ответственности за их содержание. Просьба не заливать файлы, защищенные авторскими правами, а также файлы нелегального содержания!


    _________________
    [Профиль] [ЛС]
    Показать сообщения:    
    Ответить на тему

    Текущее время: Сегодня, в 18:47

    Часовой пояс: GMT + 2



    Вы не можете начинать темы
    Вы не можете отвечать на сообщения
    Вы не можете редактировать свои сообщения
    Вы не можете удалять свои сообщения
    Вы не можете голосовать в опросах
    Вы не можете прикреплять файлы к сообщениям
    Вы не можете скачивать файлы