BitTorrentTracker PerecTracker.org
BitTorrentTracker PerecTracker.org
    
Регистрация  ·  Вход
 
 · 
Забыли пароль?

  • Оно / It Follows (Дэвид Роберт Митчелл / David Robert Mitchell) [2014, США, ужасы, фэнтези, триллер, детектив, BDRip 720p] Dub + VO (Алексей "Doctor Joker" Матвеев) + Sub Rus, Eng + Original Eng

    Ответить на тему
     
    Автор Сообщение

    Light

    Создавать темы 06-Июн-2016 17:28

           

    [Цитировать]

    -Оно / It Follows-Страна: США
    Жанр: ужасы, фэнтези, триллер, детектив
    Год выпуска: 2014
    Продолжительность: 01:40:31-Перевод: Профессиональный (дублированный) iTunes
    Перевод 2: Одноголосый закадровый Алексей "Doctor Joker" Матвеев
    Cубтитры: русские, английские
    Оригинальная аудиодорожка: английский-Режиссер: Дэвид Роберт Митчелл / David Robert Mitchell
    В ролях: Кейр Гилкрист, Лорен Басс, Оливия Луккарди, Лили Сепе, Майка Монро, Джейк Вири, Дэниэл Дзоватто, Чарльз Гертнер, Бэйли Спрай-Описание: После сексуальной связи 19-летнюю девушку по имени Джей начинают мучать странные видения и непреодолимое чувство того, что кто-то или что-то за ней следит.-Сэмпл-Тип релиза: BDRip 720p
    Контейнер: MKV
    Видео: MPEG-4 AVC Video 7188 kbps 1280x536p / 23,976 fps / High Profile 4.1
    Аудио: Russian / Dolby Digital Audio / 5.1 / 48 kHz / 384 kbps
    Аудио 2: Russian / DTS Audio 5.1 / 48 kHz / 1509 kbps
    Аудио 3: English / DTS Audio 5.1 / 48 kHz / 1509 kbps
    Формат субтитров: softsub (SRT)

    MI

    GeneralUnique ID : 228541578299566459282426668081712807806 (0xABEF81C568971EEB97C6BDD412853F7E)Complete name : L:\На хранении\Оно (2014. It Follows) 720p.mkvFormat : MatroskaFormat version : Version 4 / Version 2File size : 7.55 GiBDuration : 1h 40mnOverall bit rate : 10.8 MbpsMovie name : Release for RuTrackerEncoded date : UTC 2016-06-03 23:44:41Writing application : mkvmerge v9.0.1 ('Obstacles') 64bitWriting library : libebml v1.3.3 + libmatroska v1.4.4Cover : YesAttachments : cover.jpg
    VideoID : 1Format : AVCFormat/Info : Advanced Video CodecFormat profile : High@L4.1Format settings, CABAC : YesFormat settings, ReFrames : 12 framesCodec ID : V_MPEG4/ISO/AVCDuration : 1h 40mnBit rate : 7 373 KbpsWidth : 1 280 pixelsHeight : 536 pixelsDisplay aspect ratio : 2.40:1Frame rate mode : ConstantFrame rate : 23.976 (24000/1001) fpsColor space : YUVChroma subsampling : 4:2:0Bit depth : 8 bitsScan type : ProgressiveBits/(Pixel*Frame) : 0.448Stream size : 5.16 GiB (68%)Title : It.Follows.2014.720p.BluRay.x264.AC3.5.1-TBBWriting library : x264 core 146 r2538 121396cEncoding settings : cabac=1 / ref=12 / deblock=1:-3:-3 / analyse=0x3:0x133 / me=umh / subme=10 / psy=1 / psy_rd=1.10:0.00 / mixed_ref=1 / me_range=24 / chroma_me=1 / trellis=2 / 8x8dct=1 / cqm=0 / deadzone=21,11 / fast_pskip=0 / chroma_qp_offset=-2 / threads=12 / lookahead_threads=3 / sliced_threads=0 / nr=0 / decimate=0 / interlaced=0 / bluray_compat=0 / constrained_intra=0 / bframes=16 / b_pyramid=2 / b_adapt=2 / b_bias=0 / direct=3 / weightb=1 / open_gop=0 / weightp=2 / keyint=250 / keyint_min=23 / scenecut=40 / intra_refresh=0 / rc_lookahead=60 / rc=crf / mbtree=0 / crf=16.8 / qcomp=0.73 / qpmin=0 / qpmax=69 / qpstep=4 / vbv_maxrate=62500 / vbv_bufsize=78125 / crf_max=0.0 / nal_hrd=none / filler=0 / ip_ratio=1.19 / pb_ratio=1.15 / aq=3:0.72 / zones=3839,3989,crf=15.3/8804,10794,crf=16.4/16718,17062,crf=15.7/20106,31706,crf=16.3/34440,36116,crf=15.2/40729,40872,crf=15.8/40974,41105,crf=15.8/41218,41287,crf=14.6/41556,41685,crf=14.6/43246,43553,crf=15.1/46903,47013,crf=14.4/47631,48471,crf=16.7/54162,54353,crf=15.4/58553,58992,crf=15.2/59113,59699,crf=15.1/59700,64219,crf=16.7/68256,68841,crf=15.9/73136,73921,crf=15.2/77653,79676,crf=16.6/79677,80328,crf=14.8/81912,82464,crf=16.4/86799,88688,crf=16.2/88689,88732,crf=14.4/93353,95834,crf=16.3/97961,98082,crf=14.8/103359,106364,crf=16.7/117264,117736,crf=15.9/120463,120921,crf=15.1/122271,122544,crf=14.8/126222,126262,crf=14.6/129542,129698,crf=14.4/130587,130846,crf=14.8/131357,132715,crf=15.7/134790,135341,crf=16.6/136591,137658,crf=16.4/137659,144167,crf=17.8Language : EnglishDefault : YesForced : No
    Audio #1ID : 2Format : AC-3Format/Info : Audio Coding 3Mode extension : CM (complete main)Format settings, Endianness : BigCodec ID : A_AC3Duration : 1h 40mnBit rate mode : ConstantBit rate : 384 KbpsChannel(s) : 6 channelsChannel positions : Front: L C R, Side: L R, LFESampling rate : 48.0 KHzFrame rate : 31.250 fps (1536 spf)Compression mode : LossyStream size : 275 MiB (4%)Title : ДубляжLanguage : RussianDefault : YesForced : No
    Audio #2ID : 3Format : DTSFormat/Info : Digital Theater SystemsMode : 16Format settings, Endianness : BigCodec ID : A_DTSDuration : 1h 40mnBit rate mode : ConstantBit rate : 1 510 KbpsChannel(s) : 6 channelsChannel positions : Front: L C R, Side: L R, LFESampling rate : 48.0 KHzFrame rate : 93.750 fps (512 spf)Bit depth : 24 bitsCompression mode : LossyStream size : 1.06 GiB (14%)Title : Алексей "Doctor Joker" МатвеевLanguage : RussianDefault : NoForced : No
    Audio #3ID : 4Format : DTSFormat/Info : Digital Theater SystemsMode : 16Format settings, Endianness : BigCodec ID : A_DTSDuration : 1h 40mnBit rate mode : ConstantBit rate : 1 510 KbpsChannel(s) : 6 channelsChannel positions : Front: L C R, Side: L R, LFESampling rate : 48.0 KHzFrame rate : 93.750 fps (512 spf)Bit depth : 24 bitsCompression mode : LossyStream size : 1.06 GiB (14%)Language : EnglishDefault : NoForced : No
    Text #1ID : 5Format : UTF-8Codec ID : S_TEXT/UTF8Codec ID/Info : UTF-8 Plain TextDuration : 1h 34mnBit rate : 38 bpsCount of elements : 549Stream size : 26.6 KiB (0%)Language : RussianDefault : NoForced : No
    Text #2ID : 6Format : UTF-8Codec ID : S_TEXT/UTF8Codec ID/Info : UTF-8 Plain TextDuration : 1h 33mnBit rate : 23 bpsCount of elements : 638Stream size : 16.1 KiB (0%)Language : EnglishDefault : NoForced : No
    Text #3ID : 7Format : UTF-8Codec ID : S_TEXT/UTF8Codec ID/Info : UTF-8 Plain TextDuration : 1h 34mnBit rate : 29 bpsCount of elements : 737Stream size : 20.7 KiB (0%)Title : SDHLanguage : EnglishDefault : NoForced : No
    Menu00:00:00.000 : :Chapter 100:03:53.150 : :Chapter 200:08:46.901 : :Chapter 300:13:58.671 : :Chapter 400:22:05.115 : :Chapter 500:27:20.931 : :Chapter 600:32:12.514 : :Chapter 700:44:38.467 : :Chapter 800:49:14.994 : :Chapter 900:53:58.777 : :Chapter 1001:02:48.056 : :Chapter 1101:07:45.019 : :Chapter 1201:16:13.485 : :Chapter 1301:26:19.174 : :Chapter 1401:31:18.681 : :Chapter 1501:35:42.195 : :Chapter 16
    Скриншоты

    Зеркало


    Цитата:
    Цитата:

    • Спонсор перевода Матвеева - будулайроманов. Работа со звуком - Переводман.
    • Сохранены оригинальные главы как на Blu-ray.
    Скачать .torrent

    Скачать торрент-файл бесплатно и на максимальной скорости!

    Как скачивать? · Что такое торрент? · Рейтинг и ограничения

    !ВНИМАНИЕ!
    Сайт не распространяет и не хранит электронные версии произведений, а занимается лишь лишь предоставлением доступа к создаваемому пользователями каталогу ссылок на торрент-файлы, которые содержат только списки хеш-сумм, убедительная просьба с жалобами обращаться напрямую к пользователю. Файлы для обмена на трекере предоставлены пользователями сайта, и администрация не несёт ответственности за их содержание. Просьба не заливать файлы, защищенные авторскими правами, а также файлы нелегального содержания!


    _________________
    [Профиль] [ЛС]
    Показать сообщения:    
    Ответить на тему

    Текущее время: Сегодня, в 08:13

    Часовой пояс: GMT + 2



    Вы не можете начинать темы
    Вы не можете отвечать на сообщения
    Вы не можете редактировать свои сообщения
    Вы не можете удалять свои сообщения
    Вы не можете голосовать в опросах
    Вы не можете прикреплять файлы к сообщениям
    Вы не можете скачивать файлы