BitTorrentTracker PerecTracker.org
BitTorrentTracker PerecTracker.org
    
Регистрация  ·  Вход
 
 · 
Забыли пароль?

  • Жажда / Thirst (Род Харди / Rod Hardy) [1979, Австралия, ужасы, фантастика, триллер, мелодрама, BDRip 720p] MVO (Cinema Prestige) + Original (Eng) + Sub (Rus)

    Ответить на тему
     
    Автор Сообщение

    Light

    Создавать темы 06-Июн-2016 17:28

           

    [Цитировать]

    Жажда / Thirst«This ancient Evil is now a modern industry»-Страна: Австралия
    Жанр: ужасы, фантастика, триллер, мелодрама
    Год выпуска: 1979
    Продолжительность: 01:35:33-Перевод: Профессиональный (многоголосый закадровый) - Cinema Prestige
    Оригинальная аудиодорожка: English
    Cубтитры: Русские (полные - DVD)
    Навигация по главам: присутствует - 12 глав-Режиссер: Род Харди / Rod Hardy
    В ролях: Шанталь Контури, Ширли Камерон, Макс Фиппс, Генри Сильва, Род Муллинар, Дэвид Хеммингс, Рози Старгесс, Роберт Томпсон, Уолтер Пим, Аманда Магглтон-Описание: Преступники, оказавшиеся руководителями загадочного братства, похищают Кейт, чтобы сообщить ей, что она принадлежит к древнему вампирскому роду. Ее привозят в неприметное поместье - законспирированный завод по выкачиванию крови из жертв-доноров. Ошеломленная девушка пытается бежать из этого чудовищного места, но разве можно убежать от судьбы?-
    Download sample-Качество видео: BDRip 720p | исх. BDRemux 1080p - thx: [url=profile.php?mode=viewprofile&u=11511808]flaSI-I[/url]
    Формат: MKV-Видео: 1 280x528 (2.40:1), 23.976 fps, H.264, 12579.24 kb/s, 0.759 bit/pixel
    Аудио №1: 48.0 kHz, AC3 Dolby Digital, 2/0 (L,R) ch, ~192 kbps avg | Профессиональный (многоголосый закадровый) - Cinema Prestige
    Аудио №2: 48.0 kHz, AC3 Dolby Digital, 2/0 (L,R) ch, ~192 kbps avg | English
    Аудио №3: 48.0 kHz, AC3 Dolby Digital, 2/0 (L,R) ch, ~192 kbps avg | English - Audio Commentary With Director Rod Hardy And Producer Anthony I. Ginnane
    Аудио №4: 48.0 kHz, AC3 Dolby Digital, 2/0 (L,R) ch, ~192 kbps avg | English - Isolated Music Score By Brian May
    Субтитры: Русские (полные - DVD) | *.srt-

    MediaInfo

    General
    Unique ID : 214874441546269418511621199107690759853 (0xA1A74FE77908E070A73DD6A1F38E86AD)
    Complete name : D:\Фильмы\Рипы\Thirst.1979.BDRip 720p.eFK tRuAVC.mkv
    Format : Matroska
    Format version : Version 4 / Version 2
    File size : 8.90 GiB
    Duration : 1h 35mn
    Overall bit rate : 13.3 Mbps
    Movie name : Жажда / Thirst (1979) - Release for rutracker
    Encoded date : UTC 2016-06-04 12:39:52
    Writing application : mkvmerge v7.6.0 ('Garden of Dreams') 64bit built on Feb 8 2015 13:04:34
    Writing library : libebml v1.3.1 + libmatroska v1.4.2
    Attachements : cover.jpg
    DURATION : 01:30:52.630000000
    NUMBER_OF_FRAMES : 526
    NUMBER_OF_BYTES : 26734
    _STATISTICS_WRITING_APP : mkvmerge v7.6.0 ('Garden of Dreams') 64bit built on Feb 8 2015 13:04:34
    _STATISTICS_WRITING_DATE_UT : 2016-06-04 12:39:52
    _STATISTICS_TAGS : BPS DURATION NUMBER_OF_FRAMES NUMBER_OF_BYTES
    Video
    ID : 1
    Format : AVC
    Format/Info : Advanced Video Codec
    Format profile : High@L4.1
    Format settings, CABAC : Yes
    Format settings, ReFrames : 11 frames
    Codec ID : V_MPEG4/ISO/AVC
    Duration : 1h 35mn
    Bit rate : 12.3 Mbps
    Width : 1 280 pixels
    Height : 528 pixels
    Display aspect ratio : 2.40:1
    Frame rate mode : Constant
    Frame rate : 23.976 fps
    Color space : YUV
    Chroma subsampling : 4:2:0
    Bit depth : 8 bits
    Scan type : Progressive
    Bits/(Pixel*Frame) : 0.759
    Stream size : 8.21 GiB (92%)
    Title : eFK tRuAVC
    Writing library : x264 core 148 r2692kMod 64f4e24
    Encoding settings : cabac=1 / ref=11 / deblock=1:-3:-3 / analyse=0x3:0x113 / me=umh / subme=11 / psy=1 / fade_compensate=0.00 / psy_rd=1.10:0.00 / mixed_ref=1 / me_range=48 / chroma_me=1 / trellis=2 / 8x8dct=1 / cqm=0 / deadzone=21,11 / fast_pskip=0 / chroma_qp_offset=-2 / threads=12 / lookahead_threads=3 / sliced_threads=0 / nr=0 / decimate=1 / interlaced=0 / bluray_compat=0 / constrained_intra=0 / fgo=0 / bframes=16 / b_pyramid=2 / b_adapt=2 / b_bias=0 / direct=3 / weightb=1 / open_gop=0 / weightp=2 / keyint=250 / keyint_min=23 / scenecut=40 / intra_refresh=0 / rc_lookahead=60 / rc=crf / mbtree=0 / crf=17.5000 / qcomp=0.65 / qpmin=0 / qpmax=69 / qpstep=4 / vbv_maxrate=62500 / vbv_bufsize=78125 / crf_max=0.0 / nal_hrd=none / filler=0 / ip_ratio=1.40 / pb_ratio=1.30 / aq=3:0.75
    Language : English
    Default : Yes
    Forced : No
    Color range : Limited
    Color primaries : BT.709
    Transfer characteristics : BT.709
    Matrix coefficients : BT.709
    DURATION : 01:35:25.512000000
    NUMBER_OF_FRAMES : 137275
    NUMBER_OF_BYTES : 9002824979
    _STATISTICS_WRITING_APP : mkvmerge v7.6.0 ('Garden of Dreams') 64bit built on Feb 8 2015 13:04:34
    _STATISTICS_WRITING_DATE_UT : 2016-06-04 12:39:52
    _STATISTICS_TAGS : BPS DURATION NUMBER_OF_FRAMES NUMBER_OF_BYTES
    Audio #1
    ID : 2
    Format : AC-3
    Format/Info : Audio Coding 3
    Mode extension : CM (complete main)
    Format settings, Endianness : Big
    Codec ID : A_AC3
    Duration : 1h 35mn
    Bit rate mode : Constant
    Bit rate : 192 Kbps
    Channel(s) : 2 channels
    Channel positions : Front: L R
    Sampling rate : 48.0 KHz
    Compression mode : Lossy
    Stream size : 131 MiB (1%)
    Title : Профессиональный (многоголосый закадровый) - Cinema Prestige
    Language : Russian
    Default : Yes
    Forced : No
    Audio #2
    ID : 3
    Format : AC-3
    Format/Info : Audio Coding 3
    Mode extension : CM (complete main)
    Format settings, Endianness : Big
    Codec ID : A_AC3
    Duration : 1h 35mn
    Bit rate mode : Constant
    Bit rate : 192 Kbps
    Channel(s) : 2 channels
    Channel positions : Front: L R
    Sampling rate : 48.0 KHz
    Compression mode : Lossy
    Stream size : 131 MiB (1%)
    Language : English
    Default : No
    Forced : No
    Audio #3
    ID : 4
    Format : AC-3
    Format/Info : Audio Coding 3
    Mode extension : CM (complete main)
    Format settings, Endianness : Big
    Codec ID : A_AC3
    Duration : 1h 35mn
    Bit rate mode : Constant
    Bit rate : 192 Kbps
    Channel(s) : 2 channels
    Channel positions : Front: L R
    Sampling rate : 48.0 KHz
    Compression mode : Lossy
    Stream size : 131 MiB (1%)
    Title : Audio Commentary With Director Rod Hardy And Producer Anthony I. Ginnane
    Language : English
    Default : No
    Forced : No
    Audio #4
    ID : 5
    Format : AC-3
    Format/Info : Audio Coding 3
    Mode extension : CM (complete main)
    Format settings, Endianness : Big
    Codec ID : A_AC3
    Duration : 1h 35mn
    Bit rate mode : Constant
    Bit rate : 192 Kbps
    Channel(s) : 2 channels
    Channel positions : Front: L R
    Sampling rate : 48.0 KHz
    Compression mode : Lossy
    Stream size : 131 MiB (1%)
    Title : Isolated Music Score By Brian May
    Language : English
    Default : No
    Forced : No
    Text
    ID : 6
    Format : UTF-8
    Codec ID : S_TEXT/UTF8
    Codec ID/Info : UTF-8 Plain Text
    Title : полные - DVD
    Language : Russian
    Default : No
    Forced : No
    Menu
    00:00:00.000 : en:00:00:00.000
    00:04:05.662 : en:00:04:05.662
    00:09:09.924 : en:00:09:09.924
    00:19:26.707 : en:00:19:26.707
    00:28:26.121 : en:00:28:26.121
    00:40:25.256 : en:00:40:25.256
    00:43:37.198 : en:00:43:37.198
    00:53:09.186 : en:00:53:09.186
    01:04:26.279 : en:01:04:26.279
    01:11:52.475 : en:01:11:52.475
    01:25:29.458 : en:01:25:29.458
    01:33:33.441 : en:01:33:33.441

    x264 log

    x264 [info]: frame I:728 Avg QP:16.97 size:137627
    x264 [info]: frame P:25205 Avg QP:18.34 size: 97032
    x264 [info]: frame B:111342 Avg QP:20.74 size: 57992
    x264 [info]: consecutive B-frames: 0.8% 0.8% 3.2% 12.5% 15.5% 48.1% 9.0% 3.1% 3.1% 1.5% 1.1% 0.8% 0.3% 0.1% 0.1% 0.1% 0.0%
    x264 [info]: mb I I16..4: 1.6% 85.6% 12.8%
    x264 [info]: mb P I16..4: 0.1% 39.3% 1.1% P16..4: 18.0% 26.8% 13.9% 0.0% 0.0% skip: 0.7%
    x264 [info]: mb B I16..4: 0.0% 15.2% 0.1% B16..8: 34.2% 19.9% 8.1% direct:12.6% skip: 9.9% L0:42.5% L1:38.9% BI:18.7%
    x264 [info]: 8x8 transform intra:98.1% inter:59.0%
    x264 [info]: direct mvs spatial:100.0% temporal:0.0%
    x264 [info]: coded y,uvDC,uvAC intra: 99.5% 69.1% 28.1% inter: 65.0% 24.9% 0.9%
    x264 [info]: i16 v,h,dc,p: 39% 18% 12% 30%
    x264 [info]: i8 v,h,dc,ddl,ddr,vr,hd,vl,hu: 9% 7% 19% 10% 12% 11% 11% 10% 11%
    x264 [info]: i4 v,h,dc,ddl,ddr,vr,hd,vl,hu: 6% 6% 9% 11% 16% 13% 14% 12% 14%
    x264 [info]: i8c dc,h,v,p: 23% 37% 22% 17%
    x264 [info]: Weighted P-Frames: Y:13.4% UV:5.8%
    x264 [info]: ref P L0: 34.7% 9.3% 17.0% 9.2% 7.4% 5.6% 5.1% 3.2% 3.0% 2.6% 2.6% 0.4% 0.0%
    x264 [info]: ref B L0: 71.6% 10.5% 6.0% 3.4% 2.5% 2.1% 1.7% 1.1% 0.7% 0.3%
    x264 [info]: ref B L1: 94.8% 5.2%
    x264 [info]: kb/s:12579.24
    x264 [total]: encoded 137275 frames, 5.56 fps, 12579.24 kb/s, duration 6:51:09.47

    Screenshots

    Comparison

    Source

    Encode
    Цитата:
    Цитата:

    • Субтитров в сети никаких нет, кроме как русских под 25 fps, подгонять под этот релиз пришлось пофразово через Sub Station Alpha - за эту работу огромное спасибо [url=profile.php?mode=viewprofile&u=11511808]flaSI-I[/url]



    Скачать .torrent

    Скачать торрент-файл бесплатно и на максимальной скорости!

    Как скачивать? · Что такое торрент? · Рейтинг и ограничения

    !ВНИМАНИЕ!
    Сайт не распространяет и не хранит электронные версии произведений, а занимается лишь лишь предоставлением доступа к создаваемому пользователями каталогу ссылок на торрент-файлы, которые содержат только списки хеш-сумм, убедительная просьба с жалобами обращаться напрямую к пользователю. Файлы для обмена на трекере предоставлены пользователями сайта, и администрация не несёт ответственности за их содержание. Просьба не заливать файлы, защищенные авторскими правами, а также файлы нелегального содержания!


    _________________
    [Профиль] [ЛС]
    Показать сообщения:    
    Ответить на тему

    Текущее время: Сегодня, в 04:20

    Часовой пояс: GMT + 2



    Вы не можете начинать темы
    Вы не можете отвечать на сообщения
    Вы не можете редактировать свои сообщения
    Вы не можете удалять свои сообщения
    Вы не можете голосовать в опросах
    Вы не можете прикреплять файлы к сообщениям
    Вы не можете скачивать файлы