BitTorrentTracker PerecTracker.org
BitTorrentTracker PerecTracker.org
    
Регистрация  ·  Вход
 
 · 
Забыли пароль?

  • Ночью Эвелин вышла из могилы / La Notte Che Evelyn Usci Dalla Tomba / The Night Evelyn Came Out of the Grave (Эмилио Миралья / Emilio Miraglia) [1971, Италия, Триллер, джалло, BDRemux 1080p] VO (Вадим Белов) + Sub Eng + Original Ita

    Ответить на тему
     
    Автор Сообщение

    Light

    Создавать темы 06-Июн-2016 17:28

           

    [Цитировать]

    -Ночью Эвелин вышла из могилы / La Notte Che Evelyn Usci Dalla Tomba / The Night Evelyn Came Out of the Grave-Страна: Италия
    Жанр: Триллер, джалло
    Год выпуска: 1971
    Продолжительность: 01:42:49-Перевод: Одноголосый закадровый Вадим Белов
    Cубтитры: английские
    Оригинальная аудиодорожка: итальянский-Режиссер: Эмилио Миралья / Emilio Miraglia
    В ролях: Энтони Стеффен, Марина Мальфатти, Эрика Бланк, Джиакомо Росси-Стюарт, Энцо Тарасцио-Описание: Жена лорда Каннингема умерла, поэтому он приводит в свой замок таких же, как она, рыжеволосых красоток и убивает их. Чтобы избавиться от преступного пристрастия, он снова женится. Новая супруга уверяет, что могила ее предшественницы в фамильном склепе пуста…-Релиз -Сэмпл-Тип релиза: BDRemux 1080p
    Контейнер: MKV
    Видео: MPEG-4 AVC Video / 35041 kbps / 1080p / 23.976 fps / 16:9 / High Profile 4.1
    Аудио: Russian / Dolby Digital Audio / 2.0 / 48 kHz / 192 kbps
    Аудио 2: Italian / DTS-HD Master Audio / 1.0 / 48 kHz / 1096 kbps / 24-bit (DTS Core: 1.0 / 48 kHz / 768 kbps / 24-bit)
    Аудио 3: English / DTS-HD Master Audio / 1.0 / 48 kHz / 1114 kbps / 24-bit (DTS Core: 1.0 / 48 kHz / 768 kbps / 24-bit)
    Формат субтитров: softsub (SRT)

    MI

    GeneralUnique ID : 237314886898826427627751252836563990034 (0xB2892F4805DBBA0284AFB0B394B2B612)Complete name : P:\Джалло\Ночью Эвелин вышла из могилы (1971. La Notte Che Evelyn Usci Dalla Tomba).mkvFormat : MatroskaFormat version : Version 4 / Version 2File size : 26.4 GiBDuration : 1h 42mnOverall bit rate mode : VariableOverall bit rate : 36.7 MbpsMovie name : Release for RuTrackerEncoded date : UTC 2016-06-05 00:48:41Writing application : mkvmerge v9.0.1 ('Obstacles') 64bitWriting library : libebml v1.3.3 + libmatroska v1.4.4Cover : YesAttachments : Cover.jpg
    VideoID : 1Format : AVCFormat/Info : Advanced Video CodecFormat profile : High@L4.1Format settings, CABAC : YesFormat settings, ReFrames : 3 framesCodec ID : V_MPEG4/ISO/AVCDuration : 1h 42mnBit rate mode : VariableBit rate : 35.0 MbpsMaximum bit rate : 38.0 MbpsWidth : 1 920 pixelsHeight : 1 080 pixelsDisplay aspect ratio : 16:9Frame rate mode : ConstantFrame rate : 23.976 (24000/1001) fpsColor space : YUVChroma subsampling : 4:2:0Bit depth : 8 bitsScan type : ProgressiveBits/(Pixel*Frame) : 0.704Stream size : 24.7 GiB (94%)Title : La notte che Evelyn uscì dalla tomba 1971 1080p Blu-ray AVC DTS-HD MA 1.0-KarloffWriting library : x264 core 128 r2216 198a7eaEncoding settings : cabac=1 / ref=4 / deblock=0:-1:-1 / analyse=0x3:0x133 / me=umh / subme=10 / psy=1 / psy_rd=1.00:0.15 / mixed_ref=1 / me_range=24 / chroma_me=1 / trellis=2 / 8x8dct=1 / cqm=0 / deadzone=21,11 / fast_pskip=1 / chroma_qp_offset=-3 / threads=12 / lookahead_threads=2 / sliced_threads=0 / slices=4 / nr=0 / decimate=1 / interlaced=0 / bluray_compat=1 / constrained_intra=0 / bframes=3 / b_pyramid=1 / b_adapt=2 / b_bias=0 / direct=3 / weightb=1 / open_gop=1 / weightp=1 / keyint=24 / keyint_min=1 / scenecut=40 / intra_refresh=0 / rc_lookahead=24 / rc=abr / mbtree=1 / bitrate=35000 / ratetol=1.0 / qcomp=0.60 / qpmin=0 / qpmax=69 / qpstep=4 / vbv_maxrate=38000 / vbv_bufsize=28500 / nal_hrd=vbr / ip_ratio=1.40 / aq=1:1.00Language : ItalianDefault : YesForced : NoColor range : LimitedColor primaries : BT.709Transfer characteristics : BT.709Matrix coefficients : BT.709
    Audio #1ID : 2Format : AC-3Format/Info : Audio Coding 3Mode extension : CM (complete main)Format settings, Endianness : BigCodec ID : A_AC3Duration : 1h 42mnBit rate mode : ConstantBit rate : 192 KbpsChannel(s) : 2 channelsChannel positions : Front: L RSampling rate : 48.0 KHzFrame rate : 31.250 fps (1536 spf)Compression mode : LossyStream size : 141 MiB (1%)Title : Вадим БеловLanguage : RussianDefault : YesForced : No
    Audio #2ID : 3Format : DTSFormat/Info : Digital Theater SystemsFormat profile : MA / CoreMode : 16Format settings, Endianness : BigCodec ID : A_DTSDuration : 1h 42mnBit rate mode : Variable / ConstantBit rate : 1 050 Kbps / 768 KbpsChannel(s) : 1 channelChannel positions : Front: CSampling rate : 48.0 KHzFrame rate : 93.750 fps (512 spf)Bit depth : 24 bitsCompression mode : Lossless / LossyStream size : 772 MiB (3%)Language : ItalianDefault : NoForced : No
    Audio #3ID : 4Format : DTSFormat/Info : Digital Theater SystemsFormat profile : MA / CoreMode : 16Format settings, Endianness : BigCodec ID : A_DTSDuration : 1h 42mnBit rate mode : Variable / ConstantBit rate : 1 055 Kbps / 768 KbpsChannel(s) : 1 channelChannel positions : Front: CSampling rate : 48.0 KHzFrame rate : 93.750 fps (512 spf)Bit depth : 24 bitsCompression mode : Lossless / LossyStream size : 776 MiB (3%)Language : EnglishDefault : NoForced : No
    Text #1ID : 5Format : UTF-8Codec ID : S_TEXT/UTF8Codec ID/Info : UTF-8 Plain TextDuration : 1h 37mnBit rate : 38 bpsCount of elements : 806Stream size : 27.3 KiB (0%)Title : BDLanguage : EnglishDefault : NoForced : No
    Text #2ID : 6Format : UTF-8Codec ID : S_TEXT/UTF8Codec ID/Info : UTF-8 Plain TextDuration : 1h 40mnBit rate : 46 bpsCount of elements : 1040Stream size : 34.0 KiB (0%)Title : BD SDHLanguage : EnglishDefault : NoForced : No
    Text #3ID : 7Format : UTF-8Codec ID : S_TEXT/UTF8Codec ID/Info : UTF-8 Plain TextDuration : 1h 38mnBit rate : 40 bpsCount of elements : 847Stream size : 29.3 KiB (0%)Title : by Matteo PetrucciLanguage : EnglishDefault : NoForced : No
    Menu00:00:00.000 : en:00:00:00.00000:08:24.796 : en:00:08:24.79600:17:54.407 : en:00:17:54.40700:27:14.550 : en:00:27:14.55000:34:00.080 : en:00:34:00.08000:42:24.250 : en:00:42:24.25000:47:50.326 : en:00:47:50.32600:57:43.585 : en:00:57:43.58501:07:10.818 : en:01:07:10.81801:18:53.687 : en:01:18:53.68701:27:00.048 : en:01:27:00.04801:33:38.780 : en:01:33:38.780
    Скриншоты

    Зеркало


    Цитата:
    Цитата:

    • За оригинальный диск большое спасибо Karloff!
    • Русский звук с этой раздачи.
    • Сохранены оригинальные чаптеры как на Blu-ray.
    Скачать .torrent

    Скачать торрент-файл бесплатно и на максимальной скорости!

    Как скачивать? · Что такое торрент? · Рейтинг и ограничения

    !ВНИМАНИЕ!
    Сайт не распространяет и не хранит электронные версии произведений, а занимается лишь лишь предоставлением доступа к создаваемому пользователями каталогу ссылок на торрент-файлы, которые содержат только списки хеш-сумм, убедительная просьба с жалобами обращаться напрямую к пользователю. Файлы для обмена на трекере предоставлены пользователями сайта, и администрация не несёт ответственности за их содержание. Просьба не заливать файлы, защищенные авторскими правами, а также файлы нелегального содержания!


    _________________
    [Профиль] [ЛС]
    Показать сообщения:    
    Ответить на тему

    Текущее время: Сегодня, в 14:21

    Часовой пояс: GMT + 2



    Вы не можете начинать темы
    Вы не можете отвечать на сообщения
    Вы не можете редактировать свои сообщения
    Вы не можете удалять свои сообщения
    Вы не можете голосовать в опросах
    Вы не можете прикреплять файлы к сообщениям
    Вы не можете скачивать файлы