BitTorrentTracker PerecTracker.org
BitTorrentTracker PerecTracker.org
    
Регистрация  ·  Вход
 
 · 
Забыли пароль?

  • Незнакомец / Возмездие / El desconocido / Retribution (Дэни Де Ла Торре / Dani de la Torre) [2015, Испания, триллер, BDRip 720p] MVO (Paradox & Omskbird records) + Sub Eng + Original Spa

    Ответить на тему
     
    Автор Сообщение

    Light

    Создавать темы 06-Июн-2016 17:28

           

    [Цитировать]

    Незнакомец / Возмездие / El desconocido / Retribution
    Страна: Испания
    Жанр: триллер
    Год выпуска: 2015
    Продолжительность: 01:40:31
    Перевод: Любительский (многоголосый закадровый) Paradox & Omskbird records
    Cубтитры: Russian (forced), Spanish, English, French
    Оригинальная аудиодорожка: испанский-Режиссер: Дэни Де Ла Торре / Dani de la Torre-В ролях: Луис Тосар, Хавьер Гутьеррес, Эльвира Мингес, Фернандо Кайо, Гойя Толедо, Паула дель Рио, Марко Санс, Антонио Моурелос, Рикардо де Баррейро, Мария Мера-Описание: Находясь в машине вместе со своими детьми, управляющий банка получает анонимный телефонный звонок. Незнакомый голос сообщает ему, что у него есть всего несколько часов на то, чтобы найти большую сумму денег, иначе бомба под его сиденьем взорвётся...-Релиз:
    | Рип от SbR-Качество видео: BDRip | Sample
    Формат видео: MKV
    Видео: 1280x544 at 23.976 fps, x264@L4.1, ~4675 kbps avg
    Аудио 1: Russian: 48 kHz, AC3, 3/2 (L,C,R,l,r) + LFE ch, ~448 kbps avg
    Аудио 2: Spanish: 48 kHz, AC3, 3/2 (L,C,R,l,r) + LFE ch, ~640 kbps avg-Цитата:
    Цитата:

    • Сохранены оригинальные чаптеры как на Blu-ray.
    • Несколько SMS в телефоне дочери главного персонажа фильма переведены субтитрами.

    MediaInfo

    Format                      : Matroska
    Format version              : Version 4 / Version 2
    File size                   : 4.05 GiB
    Duration                    : 1h 40mn
    Overall bit rate            : 5 767 Kbps
    Encoded date                : UTC 2016-06-04 19:18:46
    Writing application         : mkvmerge v8.3.0 ('Over the Horizon') 32bit
    Writing library             : libebml v1.3.1 + libmatroska v1.4.2
    Cover                       : Yes
    Attachments                 : cover.jpg
    Video
    ID                          : 1
    Format                      : AVC
    Format/Info                 : Advanced Video Codec
    Format profile              : High@L4.1
    Format settings, CABAC      : Yes
    Format settings, ReFrames   : 12 frames
    Codec ID                    : V_MPEG4/ISO/AVC
    Duration                    : 1h 40mn
    Bit rate                    : 4 676 Kbps
    Width                       : 1 280 pixels
    Height                      : 544 pixels
    Display aspect ratio        : 2.35:1
    Frame rate mode             : Constant
    Frame rate                  : 23.976 (23976/1000) fps
    Color space                 : YUV
    Chroma subsampling          : 4:2:0
    Bit depth                   : 8 bits
    Scan type                   : Progressive
    Bits/(Pixel*Frame)          : 0.280
    Stream size                 : 3.28 GiB (81%)
    Writing library             : x264 core 148 r2692+54 69a6f49 t_mod_Custom [8-bit@all X86_64]
    Encoding settings           : cabac=1 / ref=12 / deblock=1:-3:-3 / analyse=0x3:0x133 / me=umh / subme=10 / psy=1 / fade_compensate=0.00 / psy_rd=1.10:0.05 / mixed_ref=1 / me_range=24 / chroma_me=1 / trellis=2 / 8x8dct=1 / cqm=0 / deadzone=21,11 / fast_pskip=0 / chroma_qp_offset=-3 / threads=6 / lookahead_threads=1 / sliced_threads=0 / nr=0 / decimate=1 / interlaced=0 / bluray_compat=0 / constrained_intra=0 / fgo=0 / bframes=9 / b_pyramid=2 / b_adapt=2 / b_bias=0 / direct=3 / weightb=1 / open_gop=0 / weightp=2 / keyint=250 / keyint_min=23 / scenecut=40 / intra_refresh=0 / rc_lookahead=60 / rc=crf / mbtree=0 / crf=17.0000 / qcomp=0.60 / qpmin=0:0:0 / qpmax=69:69:69 / qpstep=4 / vbv_maxrate=62500 / vbv_bufsize=78125 / crf_max=0.0 / nal_hrd=none / filler=0 / ip_ratio=1.30 / pb_ratio=1.20 / aq=1:0.65 / aq-sensitivity=10.00 / aq-factor=1.00:1.00:1.00 / aq2=1:0.60 / aq2-sensitivity=15.00 / aq2-factor=1.00:1.00:1.00 / aq3=1:[0.50:0.50]:[0.50:0.50]:[0.50:0.50]:[0.50:0.50] / aq3-sensitivity=10.00 / aq3-factor=[1.00:1.00]:[1.00:1.00]:[1.00:1.00] / aq3-boundary=192:64:24
    Language                    : English
    Default                     : Yes
    Forced                      : No
    Color range                 : Limited
    Color primaries             : BT.709
    Transfer characteristics    : BT.709
    Matrix coefficients         : BT.709
    Audio #1
    ID                          : 2
    Format                      : AC-3
    Format/Info                 : Audio Coding 3
    Mode extension              : CM (complete main)
    Format settings, Endianness : Big
    Codec ID                    : A_AC3
    Duration                    : 1h 40mn
    Bit rate mode               : Constant
    Bit rate                    : 448 Kbps
    Channel(s)                  : 6 channels
    Channel positions           : Front: L C R, Side: L R, LFE
    Sampling rate               : 48.0 KHz
    Frame rate                  : 31.250 fps (1536 spf)
    Compression mode            : Lossy
    Stream size                 : 322 MiB (8%)
    Title                       : Многоголосый закадровый, Paradox & Omskbird records
    Language                    : Russian
    Default                     : Yes
    Forced                      : No
    Audio #2
    ID                          : 3
    Format                      : AC-3
    Format/Info                 : Audio Coding 3
    Mode extension              : CM (complete main)
    Format settings, Endianness : Big
    Codec ID                    : A_AC3
    Duration                    : 1h 40mn
    Bit rate mode               : Constant
    Bit rate                    : 640 Kbps
    Channel(s)                  : 6 channels
    Channel positions           : Front: L C R, Side: L R, LFE
    Sampling rate               : 48.0 KHz
    Frame rate                  : 31.250 fps (1536 spf)
    Compression mode            : Lossy
    Stream size                 : 460 MiB (11%)
    Language                    : Spanish
    Default                     : No
    Forced                      : No
    Text #1
    ID                          : 4
    Format                      : UTF-8
    Codec ID                    : S_TEXT/UTF8
    Codec ID/Info               : UTF-8 Plain Text
    Duration                    : 46s 129ms
    Bit rate                    : 51 bps
    Count of elements           : 2
    Stream size                 : 295 Bytes (0%)
    Title                       : for
    Language                    : Russian
    Default                     : Yes
    Forced                      : No
    Text #2
    ID                          : 5
    Format                      : UTF-8
    Codec ID                    : S_TEXT/UTF8
    Codec ID/Info               : UTF-8 Plain Text
    Duration                    : 1h 33mn
    Bit rate                    : 91 bps
    Count of elements           : 1749
    Stream size                 : 62.7 KiB (0%)
    Language                    : Spanish
    Default                     : No
    Forced                      : No
    Text #3
    ID                          : 6
    Format                      : UTF-8
    Codec ID                    : S_TEXT/UTF8
    Codec ID/Info               : UTF-8 Plain Text
    Duration                    : 1h 33mn
    Bit rate                    : 76 bps
    Count of elements           : 1716
    Stream size                 : 52.4 KiB (0%)
    Language                    : English
    Default                     : No
    Forced                      : No
    Text #4
    ID                          : 7
    Format                      : UTF-8
    Codec ID                    : S_TEXT/UTF8
    Codec ID/Info               : UTF-8 Plain Text
    Duration                    : 1h 33mn
    Bit rate                    : 70 bps
    Count of elements           : 1459
    Stream size                 : 48.4 KiB (0%)
    Language                    : French
    Default                     : No
    Forced                      : No
    Menu
    00:00:00.000                : en:00:00:00.000
    00:04:22.095                : en:00:04:22.095
    00:17:33.761                : en:00:17:33.761
    00:24:22.043                : en:00:24:22.043
    00:32:09.427                : en:00:32:09.427
    00:41:08.007                : en:00:41:08.007
    00:50:37.284                : en:00:50:37.284
    01:01:24.514                : en:01:01:24.514
    01:08:55.339                : en:01:08:55.339
    01:19:07.784                : en:01:19:07.784
    01:25:34.379                : en:01:25:34.379
    01:35:15.251                : en:01:35:15.251

    Скриншоты

    Скачать .torrent

    Скачать торрент-файл бесплатно и на максимальной скорости!

    Как скачивать? · Что такое торрент? · Рейтинг и ограничения

    !ВНИМАНИЕ!
    Сайт не распространяет и не хранит электронные версии произведений, а занимается лишь лишь предоставлением доступа к создаваемому пользователями каталогу ссылок на торрент-файлы, которые содержат только списки хеш-сумм, убедительная просьба с жалобами обращаться напрямую к пользователю. Файлы для обмена на трекере предоставлены пользователями сайта, и администрация не несёт ответственности за их содержание. Просьба не заливать файлы, защищенные авторскими правами, а также файлы нелегального содержания!


    _________________
    [Профиль] [ЛС]
    Показать сообщения:    
    Ответить на тему

    Текущее время: Сегодня, в 22:18

    Часовой пояс: GMT + 2



    Вы не можете начинать темы
    Вы не можете отвечать на сообщения
    Вы не можете редактировать свои сообщения
    Вы не можете удалять свои сообщения
    Вы не можете голосовать в опросах
    Вы не можете прикреплять файлы к сообщениям
    Вы не можете скачивать файлы