BitTorrentTracker PerecTracker.org
BitTorrentTracker PerecTracker.org
    
Регистрация  ·  Вход
 
 · 
Забыли пароль?

  • Точка невозврата / Crossing Point (Дэниэл Дзирилли / Daniel Zirilli) [2016, США, боевик, криминал, драма, WEB-DLRip] MVO (Parovoz Production) + Original Eng

    Ответить на тему
     
    Автор Сообщение

    rechyn

    Создавать темы 06-Июн-2016 17:28

           

    [Цитировать]

    Точка невозврата / Crossing Point
    Страна: США
    Жанр: боевик, криминал, драма
    Год выпуска: 2016
    Продолжительность: 01:31:42
    Перевод: Любительский (многоголосый закадровый) Parovoz Production
    Cубтитры: нет
    Оригинальная аудиодорожка: английский
    Режиссер: Дэниэл Дзирилли / Daniel Zirilli
    В ролях: Шон Лок, Паулина Гайтан, Том Сайзмор, Джейкоб Варгас, Мария Габриела де Фария, Руди Янгблад, Люк Госс, Бертон Перез, Дэймон Уитакер, Амадор Гранадос
    Описание: Двое молодых американцев, Оливия и Майкл, решают отправиться в романтическую поездку на мексиканское побережье. Однако в курортном городке их поджидает настоящая трагедия – девушку похищает один из местных наркодиллеров. Чтобы получить свою подругу обратно живой и невредимой, Майклу предстоит пойти на сделку с мексиканской мафией и переправить через границу рюкзак, до верха набитый кокаином. На выполнение задания у главного героя есть всего 12 часов. Кроме того, запрещенное зелье оказывается было украдено у конкурирующей организации, и теперь бандиты готовый пойти на все, что бы вернуть свой груз. Дополнительные сложности создает также тот факт, что по следу преступников (а теперь и Майкла) идет один бравый полицейский. Чем же закончится для главного героя эта поездка к морю и сумеет ли он снова увидеть Оливию?
    Сэмпл: http://multi-up.com/1104579
    Качество видео: WEB-DLRip
    Формат видео: AVI
    Видео: XviD 1.1.2, 720x384, (1,85:1), 23,976 fps, 1720 Кбит/с, 8 бит
    Аудио: Русский (AC-3, 2 ch (Front: L R), 48,0 KHz, 192 Kbps)
    Аудио 2: Английский (AC-3, 2 ch (Front: L R), 48,0 KHz, 192 Kbps)

    MediaInfo

    Общее
    Полное имя : F:\Видеофильмы\В и д е о\Crossing.Point.2016.L.WEB-DLRip.avi
    Формат : AVI
    Формат/Информация : Audio Video Interleave
    Размер файла : 1,36 Гбайт
    Продолжительность : 1 ч. 31 м.
    Общий поток : 2118 Кбит/сек
    Программа кодирования : VirtualDubMod 1.5.10.3 | www.virtualdub-fr.org || (build 2550/release)
    Библиотека кодирования : VirtualDubMod build 2550/release
    Видео
    Идентификатор : 0
    Формат : MPEG-4 Visual
    Профиль формата : Simple@L3
    Параметр BVOP формата : Нет
    Параметр QPel формата : Нет
    Параметр GMC формата : Без точки перехода
    Параметр матрицы формата : Default (H.263)
    Идентификатор кодека : XVID
    Идентификатор кодека/Подсказка : XviD
    Продолжительность : 1 ч. 31 м.
    Битрейт : 1720 Кбит/сек
    Ширина : 720 пикселей
    Высота : 384 пикселя
    Соотношение сторон : 1,85:1
    Частота кадров : 23,976 (24000/1001) кадра/сек
    Цветовое пространство : YUV
    Субдискретизация насыщенности : 4:2:0
    Битовая глубина : 8 бит
    Тип развёртки : Прогрессивная
    Метод сжатия : С потерями
    Бит/(Пиксели*Кадры) : 0.259
    Размер потока : 1,10 Гбайт (81%)
    Библиотека кодирования : XviD 1.1.2 (UTC 2006-11-01)
    Аудио #1
    Идентификатор : 1
    Формат : AC-3
    Формат/Информация : Audio Coding 3
    Расширение режима : CM (complete main)
    Параметр Endianness формата : Big
    Идентификатор кодека : 2000
    Продолжительность : 1 ч. 31 м.
    Вид битрейта : Постоянный
    Битрейт : 192 Кбит/сек
    Каналы : 2 канала
    Расположение каналов : Front: L R
    Частота : 48,0 КГц
    Частота кадров : 31,250 кадров/сек (1536 spf)
    Метод сжатия : С потерями
    Размер потока : 126 Мбайт (9%)
    Выравнивание : Разделение по промежуткам
    Продолжительность промежутка : 42 мс. (1,00 видеокадр)
    Время предзагрузки промежутка : 500 мс.
    Аудио #2
    Идентификатор : 2
    Формат : AC-3
    Формат/Информация : Audio Coding 3
    Расширение режима : CM (complete main)
    Параметр Endianness формата : Big
    Идентификатор кодека : 2000
    Продолжительность : 1 ч. 31 м.
    Вид битрейта : Постоянный
    Битрейт : 192 Кбит/сек
    Каналы : 2 канала
    Расположение каналов : Front: L R
    Частота : 48,0 КГц
    Частота кадров : 31,250 кадров/сек (1536 spf)
    Метод сжатия : С потерями
    Размер потока : 126 Мбайт (9%)
    Выравнивание : Разделение по промежуткам
    Продолжительность промежутка : 42 мс. (1,00 видеокадр)
    Время предзагрузки промежутка : 500 мс.

    Скриншот c названием фильма

    Скриншоты

    Скачать .torrent

    Скачать торрент-файл бесплатно и на максимальной скорости!

    Как скачивать? · Что такое торрент? · Рейтинг и ограничения

    !ВНИМАНИЕ!
    Сайт не распространяет и не хранит электронные версии произведений, а занимается лишь лишь предоставлением доступа к создаваемому пользователями каталогу ссылок на торрент-файлы, которые содержат только списки хеш-сумм, убедительная просьба с жалобами обращаться напрямую к пользователю. Файлы для обмена на трекере предоставлены пользователями сайта, и администрация не несёт ответственности за их содержание. Просьба не заливать файлы, защищенные авторскими правами, а также файлы нелегального содержания!


    _________________
    [Профиль] [ЛС]
    Показать сообщения:    
    Ответить на тему

    Текущее время: Сегодня, в 22:52

    Часовой пояс: GMT + 2



    Вы не можете начинать темы
    Вы не можете отвечать на сообщения
    Вы не можете редактировать свои сообщения
    Вы не можете удалять свои сообщения
    Вы не можете голосовать в опросах
    Вы не можете прикреплять файлы к сообщениям
    Вы не можете скачивать файлы