BitTorrentTracker PerecTracker.org
BitTorrentTracker PerecTracker.org
    
Регистрация  ·  Вход
 
 · 
Забыли пароль?

  • Мара и Носитель Огня / Mara und der Feuerbringer (Томми Краппвайс / Tommy Krappweis) [2015, Германия, Фэнтази, HDRip] MVO

    Ответить на тему
     
    Автор Сообщение

    Light

    Создавать темы 06-Июн-2016 17:27

           

    [Цитировать]

    Мара и Носитель Огня / Mara und der Feuerbringer
    Страна: Германия
    Жанр: Фэнтази
    Год выпуска: 2015
    Продолжительность: 01:33:56
    Перевод: Любительский (многоголосый закадровый) Paradox & Omskbird records
    Cубтитры: нет
    Режиссер: Томми Краппвайс / Tommy Krappweis
    В ролях: Лилиан Прент, Ян Йозеф Лиферс, Эстер Швайнс, Кристоф Мария Хербст, Ева Хаберманн, Алекс Симон, Карин С. Тайце, Йозеф Ханнесшлагер, Леони Тепе, Мориц Фишер
    Описание: Пятнадцатилетней Маре Лорбер все доставалось от жизни по полной, яркой, эмоционально насыщенной программе. Каждый день ей приходилось справляться с обыкновенными подростковыми проблемами. Но, не успела Мара разобраться в тонкостях общения с парнями или отыскать магический способ по усовершенствованию своего лица, как на девочку свалилась невероятная миссия. Мара узнаёт, что в её руках находится будущее всего мира. Оказывается, на волю очень сильно желает вырваться бог Локки – скандинавское древнее могущественное существо. Теперь только в руках Мары находится будущее всего человечества. Сможет ли девчонка взять на себя такую страшную и огромную ответственность?
    Доп. информация: Рейтинг: -- КиноПоиск 5.4 / IMDB:6.2
    Сэмпл: http://multi-up.com/1104650
    Качество видео: HDRip
    Формат видео: AVI
    Видео: XviD 73, 720x304, (2,35:1), 24,000 fps, 1757 Кбит/с, 8 бит
    Аудио: Русский (AC-3, 6 ch (Front: L C R, Side: L R, LFE), 48,0 KHz, 448 Kbps)

    MediaInfo

    Общее
    Полное имя : F:\Видеофильмы\В и д е о\Мара и Носитель Огня (Фэнтези 2015г).avi
    Формат : AVI
    Формат/Информация : Audio Video Interleave
    Размер файла : 1,45 Гбайт
    Продолжительность : 1 ч. 33 м.
    Общий поток : 2215 Кбит/сек
    Программа кодирования : VirtualDubMod 1.5.10.3 | www.virtualdub-fr.org || (build 2550/release)
    Библиотека кодирования : VirtualDubMod build 2550/release
    Видео
    Идентификатор : 0
    Формат : MPEG-4 Visual
    Профиль формата : Advanced Simple@L5
    Параметр BVOP формата : 1
    Параметр QPel формата : Нет
    Параметр GMC формата : Без точки перехода
    Параметр матрицы формата : Выборочная
    Идентификатор кодека : XVID
    Идентификатор кодека/Подсказка : XviD
    Продолжительность : 1 ч. 33 м.
    Битрейт : 1757 Кбит/сек
    Ширина : 720 пикселей
    Высота : 304 пикселя
    Соотношение сторон : 2,35:1
    Частота кадров : 24,000 кадра/сек
    Цветовое пространство : YUV
    Субдискретизация насыщенности : 4:2:0
    Битовая глубина : 8 бит
    Тип развёртки : Прогрессивная
    Метод сжатия : С потерями
    Бит/(Пиксели*Кадры) : 0.335
    Размер потока : 1,15 Гбайт (79%)
    Библиотека кодирования : XviD 73
    Аудио
    Идентификатор : 1
    Формат : AC-3
    Формат/Информация : Audio Coding 3
    Расширение режима : CM (complete main)
    Параметр Endianness формата : Big
    Идентификатор кодека : 2000
    Продолжительность : 1 ч. 33 м.
    Вид битрейта : Постоянный
    Битрейт : 448 Кбит/сек
    Каналы : 6 каналов
    Расположение каналов : Front: L C R, Side: L R, LFE
    Частота : 48,0 КГц
    Частота кадров : 31,250 кадров/сек (1536 spf)
    Метод сжатия : С потерями
    Размер потока : 301 Мбайт (20%)
    Выравнивание : Разделение по промежуткам
    Продолжительность промежутка : 42 мс. (1,00 видеокадр)
    Время предзагрузки промежутка : 500 мс.

    Скриншот c названием фильма

    Скриншоты

    Скачать .torrent

    Скачать торрент-файл бесплатно и на максимальной скорости!

    Как скачивать? · Что такое торрент? · Рейтинг и ограничения

    !ВНИМАНИЕ!
    Сайт не распространяет и не хранит электронные версии произведений, а занимается лишь лишь предоставлением доступа к создаваемому пользователями каталогу ссылок на торрент-файлы, которые содержат только списки хеш-сумм, убедительная просьба с жалобами обращаться напрямую к пользователю. Файлы для обмена на трекере предоставлены пользователями сайта, и администрация не несёт ответственности за их содержание. Просьба не заливать файлы, защищенные авторскими правами, а также файлы нелегального содержания!


    _________________
    [Профиль] [ЛС]
    Показать сообщения:    
    Ответить на тему

    Текущее время: Сегодня, в 14:58

    Часовой пояс: GMT + 2



    Вы не можете начинать темы
    Вы не можете отвечать на сообщения
    Вы не можете редактировать свои сообщения
    Вы не можете удалять свои сообщения
    Вы не можете голосовать в опросах
    Вы не можете прикреплять файлы к сообщениям
    Вы не можете скачивать файлы