Register  ·  Log in
Forgot password?

  • Все, что у меня есть / Freeheld (2015) HDRip | D | iTunes

    Reply to topic
    Author Message


    Post 06-Jun-2016 15:50



    Все, что у меня есть / Право на наследие / Freeheld
    Страна: США Производство: Double Feature Films, Endgame Entertainment, Head Gear Films, Metrol Technology
    Год выпуска: 2015
    Жанр: драма, мелодрама, биография
    Продолжительность: 01:43:20
    Режиссер: Питер Соллетт
    Автор сценария: Рон Нисуонер
    В ролях: Джулианна Мур, Эллен Пейдж, Майкл Шеннон, Стив Карелл, Люк Граймс, Гэбриел Луна, Энтони ДеСандо, Скипп Саддат
    Описание: В опасной работе детектива женщина-полицейский Лорел Хестер полностью доверяет своим напарникам, с которыми она рискует жизнью на злачных улицах Нью-Джерси. Она скрывает от них только одно: свою юную возлюбленную Стейси. Их тихое счастье оказывается под угрозой, когда Лорел впервые встречает препятствие, которое она не в силах преодолеть, — смертельную болезнь. Посвятившая жизнь борьбе за справедливость детектив Хестер вступает в свой последний бой — битву с системой за право оставить наследство женщине, которую любит. Битву, изменившую мир...

    Перевод: Профессиональный (полное дублирование) | iTunes
    Субтитры: нет-Качество: HDRip
    Формат: АVI
    Видео кодек: XviD
    Аудио кодек: АС3
    Видео: 720x384 (1.85:1), 23.976 fps, XviD ~1 501 kbps avg
    Аудио: 48 kHz, AC3 Dolby Digital, 3/2 (L,C,R,l,r) + LFE ch, ~384 kbps
    Дата премьеры (мир): 13 сентября 2015
    Дата премьеры (РФ): 5 мая 2016, «Артхаус»

    Media Info

    Complete name : BC10.4t0.u.meH1a.jeCt.2O15.D.HDRip.14OOMB.avi
    Format : AVI
    Format/Info : Audio Video Interleave
    File size : 1.37 GiB
    Duration : 1h 43mn
    Overall bit rate : 1 894 Kbps
    Movie name : BC10.4t0.u.meH1a.jeCt.2O15.D.HDRip.14OOMB
    Writing application : VirtualDubMod (build 2540/release)
    Original source form/Name : Movie
    ID : 0
    Format : MPEG-4 Visual
    Format profile : Advanced Simple@L5
    Format settings, BVOP : 2
    Format settings, QPel : No
    Format settings, GMC : No warppoints
    Format settings, Matrix : Default (MPEG)
    Codec ID : XVID
    Codec ID/Hint : XviD
    Duration : 1h 43mn
    Bit rate : 1 501 Kbps
    Width : 720 pixels
    Height : 384 pixels
    Display aspect ratio : 1.85:1
    Frame rate : 23.976 (24000/1001) fps
    Color space : YUV
    Chroma subsampling : 4:2:0
    Bit depth : 8 bits
    Scan type : Progressive
    Compression mode : Lossy
    Bits/(Pixel*Frame) : 0.226
    Stream size : 1.08 GiB (79%)
    Writing library : XviD 1.2.1 (UTC 2008-12-04)
    ID : 1
    Format : AC-3
    Format/Info : Audio Coding 3
    Mode extension : CM (complete main)
    Format settings, Endianness : Big
    Codec ID : 2000
    Duration : 1h 43mn
    Bit rate mode : Constant
    Bit rate : 384 Kbps
    Channel(s) : 6 channels
    Channel positions : Front: L C R, Side: L R, LFE
    Sampling rate : 48.0 KHz
    Frame rate : 31.250 fps (1536 spf)
    Compression mode : Lossy
    Stream size : 284 MiB (20%)
    Alignment : Split accross interleaves
    Interleave, duration : 42 ms (1.00 video frame)
    Interleave, preload duration : 500 ms


    Download .torrent

    Download free and at maximum speed!

    How to Download? · What is a torrent? · Ratings and Limitations

    The site does not extend and does not store electronic(digital) versions of products, and only gives access to a reference catalogue created by users on torrent-files which contain only lists of the hash-sums, the earnest entreaty, with complaints(abuse) to access directly to the user. Files for an exchange on tracker are given by users of a site, and the administration does not bear the responsibility for their maintenance. The request to not fill in the files protected by copyrights, and also files of the illegal maintenance!

    [Profile] [PM]
    Display posts from previous:    
    Reply to topic

    The time now is: Today 08:59

    All times are GMT + 3 Hours

    You cannot post new topics in this forum
    You cannot reply to topics in this forum
    You cannot edit your posts in this forum
    You cannot delete your posts in this forum
    You cannot vote in polls in this forum
    You cannot attach files in this forum
    You cannot download files in this forum