BitTorrentTracker PerecTracker.org
BitTorrentTracker PerecTracker.org
    
Регистрация  ·  Вход
 
 · 
Забыли пароль?

  • Взорвать Гитлера / Elser / 13 Minutes (Оливер Хиршбигель / Oliver Hirschbiegel) [2015, Германия, драма, BDRip 720p] Dub + MVO (Paradox & Omskbird records) + Original (Ger) + Sub (Eng, Ger)

    Ответить на тему
     
    Автор Сообщение

    Light

    Создавать темы 06-Июн-2016 09:03

           

    [Цитировать]

    Взорвать Гитлера / Elser / 13 MinutesСтрана: Германия
    Жанр: драма
    Год выпуска: 2015
    Продолжительность: 01:53:48
    Перевод:
    • Профессиональный (дублированный)
    • Любительский (многоголосый закадровый) Студия "Paradox & Omskbird records" // Перевод: Наталия Рыбина
    Cубтитры: английские, немецкие, немецкие (SDH)
    Оригинальная аудиодорожка: немецкий
    Режиссер: Оливер Хиршбигель / Oliver Hirschbiegel
    В ролях: Кристиан Фридель, Катарина Шюттлер, Бургхарт Клаусснер, Йохан фон Бюлов, Феликс Эйтнер, Давид Зиммершмид, Рюдигер Клинк, Симон Лихт, Корнелия Конгден, Мартин Мария Абрам
    Описание:
    Всего 13 минут не хватило плотнику Георгу Эльзеру, чтобы изменить ход мировой истории. 8 ноября 1939 года в мюнхенской пивной «Бюргербройкеллер», где Гитлер каждый год в годовщину «Пивного путча» выступал перед ветеранами Национал-социалистической рабочей партии Германии Эльзер вмонтировал самодельное взрывное устройство с часовым механизмом в колонну, перед которой обычно устанавливали трибуну для вождя.
    В результате взрыва 8 человек было убито и 63 ранено. Однако Гитлера среди пострадавших не оказалось. Фюрер, ограничившись на этот раз кратким приветствием в адрес собравшихся, покинул зал за семь минут до взрыва, так как ему нужно было возвращаться в Берлин.
    В фильме реконструирован социально-политический контекст того времени, а также события происходившие с Георгом Эльзером.
    - || -Тип релиза: BDRip 720p (рип от NCmt)
    Контейнер: MKV
    Видео: AVC (x264), 1280x536 (2.40:1) at 24,000 fps, 9211 Кbps
    Аудио 1: AC3; 384 Kbps; CBR; 6 ch; 48 khz | Дубляж |
    Аудио 2: AC3; 448 Kbps; CBR; 6 ch; 48 khz | MVO |
    Аудио 3: DTS; 768 Kbps; CBR; 6 ch; 48 khz | Немецкий |
    Формат субтитров: softsub (SRT)

    Скриншоты || x264 Info || MediaInfo || Notes

    MediaInfo

    General
    Unique ID                                : 248533008846712687435917699123283847731 (0xBAF9B76560BED8D48379EC95E4516A33)
    Complete name                            : Взорвать Гитлера.2015.Dub.720p.BluRay.x264-NCmt.mkv
    Format                                   : Matroska
    Format version                           : Version 4 / Version 2
    File size                                : 8.77 GiB
    Duration                                 : 1h 53mn
    Overall bit rate                         : 11.0 Mbps
    Movie name                               : 13 Minutes [2015] [720p] DUB, MVO
    Encoded date                             : UTC 2016-06-05 11:21:36
    Writing application                      : mkvmerge v7.8.0 ('River Man') 32bit built on Mar 27 2015 16:18:02
    Writing library                          : libebml v1.3.1 + libmatroska v1.4.2
    Video
    ID                                       : 1
    Format                                   : AVC
    Format/Info                              : Advanced Video Codec
    Format profile                           : High@L4.1
    Format settings, CABAC                   : Yes
    Format settings, ReFrames                : 12 frames
    Codec ID                                 : V_MPEG4/ISO/AVC
    Duration                                 : 1h 53mn
    Bit rate                                 : 9 211 Kbps
    Width                                    : 1 280 pixels
    Height                                   : 536 pixels
    Display aspect ratio                     : 2.40:1
    Frame rate mode                          : Constant
    Frame rate                               : 24.000 fps
    Color space                              : YUV
    Chroma subsampling                       : 4:2:0
    Bit depth                                : 8 bits
    Scan type                                : Progressive
    Bits/(Pixel*Frame)                       : 0.559
    Stream size                              : 7.32 GiB (84%)
    Title                                    : profile.php?mode=viewprofile&u=22488948
    Writing library                          : x264 core 148 r2665 a01e339
    Encoding settings                        : cabac=1 / ref=12 / deblock=1:-3:-3 / analyse=0x3:0x133 / me=umh / subme=11 / psy=1 / psy_rd=1.00:0.00 / mixed_ref=1 / me_range=32 / chroma_me=1 / trellis=2 / 8x8dct=1 / cqm=0 / deadzone=21,11 / fast_pskip=0 / chroma_qp_offset=-2 / threads=6 / lookahead_threads=1 / sliced_threads=0 / nr=0 / decimate=0 / interlaced=0 / bluray_compat=0 / constrained_intra=0 / bframes=9 / b_pyramid=2 / b_adapt=2 / b_bias=0 / direct=3 / weightb=1 / open_gop=0 / weightp=2 / keyint=250 / keyint_min=24 / scenecut=40 / intra_refresh=0 / rc_lookahead=60 / rc=crf / mbtree=0 / crf=15.7 / qcomp=0.64 / qpmin=0 / qpmax=69 / qpstep=4 / vbv_maxrate=38000 / vbv_bufsize=30000 / crf_max=0.0 / nal_hrd=none / filler=0 / ip_ratio=1.40 / pb_ratio=1.23 / aq=2:0.78 / zones=0,1327,crf=20/15187,17227,crf=16.3/20087,37942,crf=16.1/64068,69732,crf=16/87938,99197,crf=15.8/117018,123459,crf=16.1/153883,163874,crf=20
    Language                                 : German
    Default                                  : Yes
    Forced                                   : No
    Audio #1
    ID                                       : 2
    Format                                   : AC-3
    Format/Info                              : Audio Coding 3
    Mode extension                           : CM (complete main)
    Format settings, Endianness              : Big
    Codec ID                                 : A_AC3
    Duration                                 : 1h 53mn
    Bit rate mode                            : Constant
    Bit rate                                 : 384 Kbps
    Channel(s)                               : 6 channels
    Channel positions                        : Front: L C R, Side: L R, LFE
    Sampling rate                            : 48.0 KHz
    Bit depth                                : 16 bits
    Compression mode                         : Lossy
    Stream size                              : 313 MiB (3%)
    Title                                    : dub
    Language                                 : Russian
    Default                                  : Yes
    Forced                                   : No
    Audio #2
    ID                                       : 3
    Format                                   : AC-3
    Format/Info                              : Audio Coding 3
    Mode extension                           : CM (complete main)
    Format settings, Endianness              : Big
    Codec ID                                 : A_AC3
    Duration                                 : 1h 53mn
    Bit rate mode                            : Constant
    Bit rate                                 : 448 Kbps
    Channel(s)                               : 6 channels
    Channel positions                        : Front: L C R, Side: L R, LFE
    Sampling rate                            : 48.0 KHz
    Bit depth                                : 16 bits
    Compression mode                         : Lossy
    Stream size                              : 365 MiB (4%)
    Title                                    : MVO [Paradox & Omskbird records]
    Language                                 : Russian
    Default                                  : No
    Forced                                   : No
    Audio #3
    ID                                       : 4
    Format                                   : DTS
    Format/Info                              : Digital Theater Systems
    Mode                                     : 16
    Format settings, Endianness              : Big
    Codec ID                                 : A_DTS
    Duration                                 : 1h 53mn
    Bit rate mode                            : Constant
    Bit rate                                 : 768 Kbps
    Channel(s)                               : 6 channels
    Channel positions                        : Front: L C R, Side: L R, LFE
    Sampling rate                            : 48.0 KHz
    Bit depth                                : 24 bits
    Compression mode                         : Lossy
    Stream size                              : 625 MiB (7%)
    Language                                 : German
    Default                                  : No
    Forced                                   : No
    Text #1
    ID                                       : 5
    Format                                   : UTF-8
    Codec ID                                 : S_TEXT/UTF8
    Codec ID/Info                            : UTF-8 Plain Text
    Language                                 : English
    Default                                  : No
    Forced                                   : No
    Text #2
    ID                                       : 6
    Format                                   : UTF-8
    Codec ID                                 : S_TEXT/UTF8
    Codec ID/Info                            : UTF-8 Plain Text
    Language                                 : German
    Default                                  : No
    Forced                                   : No
    Text #3
    ID                                       : 7
    Format                                   : UTF-8
    Codec ID                                 : S_TEXT/UTF8
    Codec ID/Info                            : UTF-8 Plain Text
    Title                                    : SDH
    Language                                 : German
    Default                                  : No
    Forced                                   : No
    Menu
    00:00:00.000                             : en:Chapter 01
    00:06:04.958                             : en:Chapter 02
    00:09:56.542                             : en:Chapter 03
    00:17:13.958                             : en:Chapter 04
    00:25:41.833                             : en:Chapter 05
    00:47:22.417                             : en:Chapter 06
    01:02:06.292                             : en:Chapter 07
    01:18:20.708                             : en:Chapter 08
    01:38:23.000                             : en:Chapter 09
    Цитата: За русскую аудио дорожку №2, спасибки: TERRAN1
    -
    Студия "Paradox & Omskbird records" - роли озвучивали: Павел Ярощик, Константин Погодаев, Андрей Астров, Максим Максимов, Анастасия Флигина
    Скачать .torrent

    Скачать торрент-файл бесплатно и на максимальной скорости!

    Как скачивать? · Что такое торрент? · Рейтинг и ограничения

    !ВНИМАНИЕ!
    Сайт не распространяет и не хранит электронные версии произведений, а занимается лишь лишь предоставлением доступа к создаваемому пользователями каталогу ссылок на торрент-файлы, которые содержат только списки хеш-сумм, убедительная просьба с жалобами обращаться напрямую к пользователю. Файлы для обмена на трекере предоставлены пользователями сайта, и администрация не несёт ответственности за их содержание. Просьба не заливать файлы, защищенные авторскими правами, а также файлы нелегального содержания!


    _________________
    [Профиль] [ЛС]
    Показать сообщения:    
    Ответить на тему

    Текущее время: Сегодня, в 18:10

    Часовой пояс: GMT + 2



    Вы не можете начинать темы
    Вы не можете отвечать на сообщения
    Вы не можете редактировать свои сообщения
    Вы не можете удалять свои сообщения
    Вы не можете голосовать в опросах
    Вы не можете прикреплять файлы к сообщениям
    Вы не можете скачивать файлы