BitTorrentTracker PerecTracker.org
BitTorrentTracker PerecTracker.org
    
Регистрация  ·  Вход
 
 · 
Забыли пароль?

  • [ATV3] 13 часов: Тайные солдаты Бенгази / 13 Hours: The Secret Soldiers of Benghazi (Майкл Бэй / Michael Bay) [2016, США, Боевик, триллер, драма, военный, BDRip, HD (1080p)] DUB + Original + sub (rus, eng, ukr)

    Ответить на тему
     
    Автор Сообщение

    rechyn

    Создавать темы 06-Июн-2016 04:51

           

    [Цитировать]

    13 часов: Тайные солдаты Бенгази / 13 Hours: The Secret Soldiers of Benghazi
    «In 2012, the threat level in Benghazi, Libya was deemed 'critical'. When everything went wrong, six men had the courage to do what was right»
    6.611 / 10 7.40 / 10
    -Год выпуска: 2016
    Страна: США
    Жанр: Боевик, триллер, драма, военный
    Продолжительность: 02:24:29
    Перевод: Дублированный (Лицензия)
    Оригинальная аудиодорожка: Есть
    Cубтитры: Русские, Английские, Украинские
    Режиссёр: Майкл Бэй
    Сценарий: Чак Хоган, Митчелл Зукофф
    Продюсер: Майкл Бэй, Эрвин Стофф, Ричард Эбейт
    Оператор: Дион Биби
    Композитор: Лорн Бэлф
    Художник: Джеффри Бикрофт, Чарло Далли, Азиз Рафик
    Монтаж: Майкл МакКаскер, Пьетро Скалия, Кэлвин Уиммер
    В ролях: Джон Красински, Джеймс Бэдж Дэйл, Пабло Шрайбер, Дэвид Денман, Доминик Фумуса, Макс Мартини, Алексия Бальер, Дэвид Костабайл, Пейман Моаади, Мэтт Летчер
    Бюджет: $50 000 000
    Сборы в США: $52 853 219
    Сборы в мире: + $16 558 151 = $69 411 370
    Сборы в России: $291 740
    Мировая премьера: 12 января 2016
    Премьера (РФ): 28 января 2016, «Централ Партнершип»
    Релиз на DVD: 12 июля 2016, «Новый Диск»
    Релиз на Blu-Ray: 12 июля 2016, «Новый Диск»
    Описание: 2012 год. Бенгази, Ливия. Группа террористов решает «отпраздновать» события 11 сентября нападением на американское посольство. Шестерке бойцов из элитного спецотряда приказано вмешаться только в крайнем случае. Но когда под угрозой десятки жизней, долг и совесть берут верх над субординацией. И мужественные солдаты без колебаний вступают в бой с яростной группировкой боевиков. Бой, который для всех шестерых, скорее всего, станет последним.-Качество исходника: Blu-Ray (HDClub)
    Качество: BDRip
    Тип: HD (1080p)
    Контейнер: M4V
    Видео: H.264, 1920x800, 2.40:1, 8 000 Kbps, 23.976 (24000/1001) fps
    Аудио 1: Русский/Дублированный (Лицензия), AAC / 2.0 / 157 Kbps / 48.0 KHz
    Аудио 2: Английский/Оригинальная дорожка , AAC / 2.0 / 157 Kbps / 48.0 KHz
    Аудио 3: Украинский/Дублированный (Лицензия), AAC / 2.0 / 158 Kbps / 48.0 KHz
    Аудио 4: Русский/Дублированный (Лицензия), AC-3 / 5.1 / 640 Kbps / 48.0 KHz
    Аудио 5: Английский/Оригинальная дорожка , AC-3 / 5.1 / 640 Kbps / 48.0 KHz
    Аудио 6: Украинский/Дублированный (Лицензия), AC-3 / 5.1 / 640 Kbps / 48.0 KHz
    Субтитры 1: Русские полные
    Субтитры 2: Английские полные
    Субтитры 3: Украинские полные
    -

    iTunes Meta Tags

    Sort Name: 13 Hours: The Secret Soldiers of Benghazi
    XID: Apple:vendor_id:2016-882327
    contentID: 1069054137
    Copyright: © MMXV Paramount Pictures Corporation. All rights Reserved.
    Screenwriters: Чак Хоган, Митчелл Зукофф
    Producers: Майкл Бэй, Эрвин Стофф, Ричард Эбейт
    Director: Майкл Бэй
    Cast: Джон Красински, Джеймс Бэдж Дэйл, Пабло Шрайбер, Дэвид Денман, Доминик Фумуса, Макс Мартини, Алексия Бальер, Дэвид Костабайл, Пейман Моаади, Мэтт Летчер, Дмитрий Поляновский, Даниил Эльдаров, Михаил Тихонов, Радик Мухаметзянов, Иван Калинин
    Studio: Paramount
    Rating: 5
    Long Description: 2012 год. Бенгази, Ливия. Группа террористов решает "отпраздновать" события 11 сентября нападением на американское посольство. Шестерке бойцов из элитного спецотряда приказано вмешаться только в крайнем случае. Но когда под угрозой десятки жизней, долг и совесть берут верх над субординацией. И мужественные солдаты без колебаний вступают в бой с яростной группировкой боевиков. Бой, который для всех шестерых, скорее всего, станет последним.
    Description: 2012 год. Бенгази, Ливия. Группа террористов решает "отпраздновать" события 11 сентября нападением на американское посольство. Шестерке бойцов из элитного спецотряда приказано вмешаться только в крайнем случае. Но когда под угрозой десятки жизней, долг и совесть берут верх над субординацией. И мужественные солдаты без колебаний вступают в бой с яростной группировкой боевиков. Бой, который для всех шестерых, скорее всего, станет последним.
    Release Date: 2016-01-12T08:00:00Z
    Genre: Action & Adventure
    Artist: Michael Bay
    Name: 13 Hours: The Secret Soldiers of Benghazi

    MediaInfo

    General
    Complete name : /Users/imac/HandBrake/13 Hours- The Secret Soldiers of Benghazi (1080p HD).m4v
    Format : MPEG-4
    Codec ID : M4V  (M4V /M4A /mp42/isom)
    File size : 10.5 GiB
    Duration : 2h 24mn
    Overall bit rate mode : Variable
    Overall bit rate : 10.4 Mbps
    Movie name : 13 Hours: The Secret Soldiers of Benghazi
    Performer : Michael Bay
    Director : Майкл Бэй
    Actor : Джон Красински / Джеймс Бэдж Дэйл / Пабло Шрайбер / Дэвид Денман / Доминик Фумуса / Макс Мартини / Алексия Бальер / Дэвид Костабайл / Пейман Моаади / Мэтт Летчер / Дмитрий Поляновский / Даниил Эльдаров / Михаил Тихонов / Радик Мухаметзянов / Иван Калинин
    Screenplay by : Чак Хоган / Митчелл Зукофф
    Producer : Майкл Бэй / Эрвин Стофф / Ричард Эбейт
    Production studio : Paramount
    Genre : Action & Adventure
    ContentType : Short Film
    Description : 2012 год. Бенгази, Ливия. Группа террористов решает "отпраздновать" события 11 сентября нападением на американское посольство. Шестерке бойцов из элитного спецотряда приказано вмешаться только в крайнем случае. Но когда под угрозой десятки жизней, долг и совесть берут верх над субординацией. И мужественные солдаты без колебаний вступают в бой с яростной группировкой боевиков. Бой, который для всех шестерых, скорее всего, станет последним.
    Recorded date : UTC 2016-01-12 08:00:00
    Encoded date : UTC 2016-06-05 12:14:45
    Tagged date : UTC 2016-06-05 12:19:58
    Copyright : © MMXV Paramount Pictures Corporation. All rights Reserved.
    Cover : Yes
    Rating : None
    Title/Sort : 13 Hours: The Secret Soldiers of Benghazi
    LongDescription : 2012 год. Бенгази, Ливия. Группа террористов решает "отпраздновать" события 11 сентября нападением на американское посольство. Шестерке бойцов из элитного спецотряда приказано вмешаться только в крайнем случае. Но когда под угрозой десятки жизней, долг и совесть берут верх над субординацией. И мужественные солдаты без колебаний вступают в бой с яростной группировкой боевиков. Бой, который для всех шестерых, скорее всего, станет последним.
    AppleStoreCatalogID : 1069054137
    Vendor : Apple:vendor_id:2016-882327
    ContentRating : mpaa|R|400|
    Video #1
    ID : 1
    Format : AVC
    Format/Info : Advanced Video Codec
    Format profile : High@L4
    Format settings, CABAC : Yes
    Format settings, ReFrames : 4 frames
    Codec ID : avc1
    Codec ID/Info : Advanced Video Coding
    Duration : 2h 24mn
    Source duration : 2h 24mn
    Bit rate : 8 000 Kbps
    Width : 1 920 pixels
    Height : 800 pixels
    Display aspect ratio : 2.40:1
    Frame rate mode : Variable
    Frame rate : 23.976 (24000/1001) fps
    Minimum frame rate : 23.810 fps
    Maximum frame rate : 24.246 fps
    Color space : YUV
    Chroma subsampling : 4:2:0
    Bit depth : 8 bits
    Scan type : Progressive
    Bits/(Pixel*Frame) : 0.217
    Stream size : 8.07 GiB (77%)
    Source stream size : 8.07 GiB (77%)
    Title : Main Program
    Writing library : x264 core 142 r2479 dd79a61
    Encoding settings : cabac=1 / ref=4 / deblock=1:-2:-2 / analyse=0x3:0x133 / me=umh / subme=10 / psy=1 / psy_rd=1.00:0.15 / mixed_ref=1 / me_range=32 / chroma_me=1 / trellis=2 / 8x8dct=1 / cqm=0 / deadzone=21,11 / fast_pskip=0 / chroma_qp_offset=-3 / threads=36 / lookahead_threads=6 / sliced_threads=0 / nr=0 / decimate=0 / interlaced=0 / bluray_compat=0 / constrained_intra=0 / bframes=16 / b_pyramid=2 / b_adapt=2 / b_bias=0 / direct=3 / weightb=1 / open_gop=0 / weightp=2 / keyint=240 / keyint_min=24 / scenecut=40 / intra_refresh=0 / rc_lookahead=60 / rc=2pass / mbtree=1 / bitrate=8000 / ratetol=1.0 / qcomp=0.70 / qpmin=0 / qpmax=69 / qpstep=4 / cplxblur=20.0 / qblur=0.5 / vbv_maxrate=25000 / vbv_bufsize=25000 / nal_hrd=none / filler=0 / ip_ratio=1.40 / aq=1:1.00
    Language : English
    Encoded date : UTC 2016-06-05 12:14:45
    Tagged date : UTC 2016-06-05 12:15:09
    Color range : Limited
    Color primaries : BT.709
    Transfer characteristics : BT.709
    Matrix coefficients : BT.709
    Menus : 11,12
    Video #2
    ID : 12
    Format : JPEG
    Codec ID : jpeg
    Duration : 2h 24mn
    Bit rate mode : Variable
    Bit rate : 858 bps
    Width : 640 pixels
    Height : 266 pixels
    Display aspect ratio : 2.40:1
    Frame rate mode : Variable
    Frame rate : 0.003 fps
    Minimum frame rate : 0.001 fps
    Maximum frame rate : 0.006 fps
    Color space : YUV
    Chroma subsampling : 4:2:0
    Bit depth : 8 bits
    Compression mode : Lossy
    Bits/(Pixel*Frame) : 1.680
    Stream size : 768 KiB (0%)
    Title : Chapter Images
    Language : English
    Default : No
    Encoded date : UTC 2016-06-05 12:18:21
    Tagged date : UTC 2016-06-05 12:18:22
    Menu For : 1
    Audio #1
    ID : 2
    Format : AAC
    Format/Info : Advanced Audio Codec
    Format profile : LC
    Codec ID : 40
    Duration : 2h 24mn
    Bit rate mode : Variable
    Bit rate : 157 Kbps
    Maximum bit rate : 249 Kbps
    Channel(s) : 2 channels
    Channel positions : Front: L R
    Sampling rate : 48.0 KHz
    Frame rate : 46.875 fps (1024 spf)
    Compression mode : Lossy
    Stream size : 163 MiB (2%)
    Title : Russian Stereo
    Language : Russian
    Default : Yes
    Alternate group : 1
    Encoded date : UTC 2016-06-05 12:14:45
    Tagged date : UTC 2016-06-05 12:15:10
    Fallback From : 5
    Menus : 11
    Audio #2
    ID : 3
    Format : AAC
    Format/Info : Advanced Audio Codec
    Format profile : LC
    Codec ID : 40
    Duration : 2h 24mn
    Bit rate mode : Variable
    Bit rate : 157 Kbps
    Maximum bit rate : 260 Kbps
    Channel(s) : 2 channels
    Channel positions : Front: L R
    Sampling rate : 48.0 KHz
    Frame rate : 46.875 fps (1024 spf)
    Compression mode : Lossy
    Stream size : 162 MiB (2%)
    Title : English Stereo
    Language : English
    Default : No
    Alternate group : 1
    Encoded date : UTC 2016-06-05 12:14:45
    Tagged date : UTC 2016-06-05 12:15:10
    Fallback From : 6
    Audio #3
    ID : 4
    Format : AAC
    Format/Info : Advanced Audio Codec
    Format profile : LC
    Codec ID : 40
    Duration : 2h 24mn
    Bit rate mode : Variable
    Bit rate : 158 Kbps
    Maximum bit rate : 247 Kbps
    Channel(s) : 2 channels
    Channel positions : Front: L R
    Sampling rate : 48.0 KHz
    Frame rate : 46.875 fps (1024 spf)
    Compression mode : Lossy
    Stream size : 163 MiB (2%)
    Title : Ukrainian Stereo
    Language : Ukrainian
    Default : No
    Alternate group : 1
    Encoded date : UTC 2016-06-05 12:14:45
    Tagged date : UTC 2016-06-05 12:15:10
    Fallback From : 7
    Audio #4
    ID : 5
    Format : AC-3
    Format/Info : Audio Coding 3
    Mode extension : CM (complete main)
    Format settings, Endianness : Big
    Codec ID : ac-3
    Duration : 2h 24mn
    Bit rate mode : Constant
    Bit rate : 640 Kbps
    Channel(s) : 6 channels
    Channel positions : Front: L C R, Side: L R, LFE
    Sampling rate : 48.0 KHz
    Frame rate : 31.250 fps (1536 spf)
    Bit depth : 16 bits
    Compression mode : Lossy
    Stream size : 661 MiB (6%)
    Title : Russian DD 5.1
    Language : Russian
    Default : Inherited From: 2
    Alternate group : 1
    Encoded date : UTC 2016-06-05 12:14:45
    Tagged date : UTC 2016-06-05 12:18:12
    Fallback To : 2
    Audio #5
    ID : 6
    Format : AC-3
    Format/Info : Audio Coding 3
    Mode extension : CM (complete main)
    Format settings, Endianness : Big
    Codec ID : ac-3
    Duration : 2h 24mn
    Bit rate mode : Constant
    Bit rate : 640 Kbps
    Channel(s) : 6 channels
    Channel positions : Front: L C R, Side: L R, LFE
    Sampling rate : 48.0 KHz
    Frame rate : 31.250 fps (1536 spf)
    Bit depth : 16 bits
    Compression mode : Lossy
    Stream size : 661 MiB (6%)
    Title : English DD 5.1
    Language : English
    Default : No
    Alternate group : 1
    Encoded date : UTC 2016-06-05 12:14:45
    Tagged date : UTC 2016-06-05 12:18:12
    Fallback To : 3
    Audio #6
    ID : 7
    Format : AC-3
    Format/Info : Audio Coding 3
    Mode extension : CM (complete main)
    Format settings, Endianness : Big
    Codec ID : ac-3
    Duration : 2h 24mn
    Bit rate mode : Constant
    Bit rate : 640 Kbps
    Channel(s) : 6 channels
    Channel positions : Front: L C R, Side: L R, LFE
    Sampling rate : 48.0 KHz
    Frame rate : 31.250 fps (1536 spf)
    Bit depth : 16 bits
    Compression mode : Lossy
    Stream size : 661 MiB (6%)
    Title : Ukrainian DD 5.1
    Language : Ukrainian
    Default : No
    Alternate group : 1
    Encoded date : UTC 2016-06-05 12:14:45
    Tagged date : UTC 2016-06-05 12:18:12
    Fallback To : 4
    Text #1
    ID : 8
    Format : Timed Text
    Muxing mode : sbtl
    Codec ID : tx3g
    Duration : 2h 24mn
    Bit rate mode : Variable
    Bit rate : 100 bps
    Stream size : 106 KiB (0%)
    Title : Russian full
    Language : Russian
    Default : Yes
    Forced : No
    Alternate group : 2
    Encoded date : UTC 2016-06-05 12:14:45
    Tagged date : UTC 2016-06-05 12:18:12
    Text #2
    ID : 9
    Format : Timed Text
    Muxing mode : sbtl
    Codec ID : tx3g
    Duration : 2h 15mn
    Bit rate mode : Variable
    Bit rate : 78 bps
    Stream size : 77.9 KiB (0%)
    Title : English full
    Language : English
    Default : No
    Forced : No
    Alternate group : 2
    Encoded date : UTC 2016-06-05 12:14:45
    Tagged date : UTC 2016-06-05 12:18:12
    Text #3
    ID : 10
    Format : Timed Text
    Muxing mode : sbtl
    Codec ID : tx3g
    Duration : 2h 24mn
    Bit rate mode : Variable
    Bit rate : 121 bps
    Stream size : 128 KiB (0%)
    Title : Ukrainian full
    Language : Ukrainian
    Default : No
    Forced : No
    Alternate group : 2
    Encoded date : UTC 2016-06-05 12:14:45
    Tagged date : UTC 2016-06-05 12:18:12
    Menu #1
    00:00:00.000 : 00:00:00.000
    00:04:47.662 : 00:04:47.662
    00:09:01.541 : 00:09:01.541
    00:15:31.556 : 00:15:31.556
    00:21:12.229 : 00:21:12.229
    00:26:48.774 : 00:26:48.774
    00:31:22.756 : 00:31:22.756
    00:34:20.058 : 00:34:20.058
    00:39:36.124 : 00:39:36.124
    00:47:12.872 : 00:47:12.872
    00:53:59.027 : 00:53:59.027
    01:02:27.744 : 01:02:27.744
    01:10:03.324 : 01:10:03.324
    01:23:02.477 : 01:23:02.477
    01:27:11.101 : 01:27:11.101
    01:34:50.685 : 01:34:50.685
    01:42:36.359 : 01:42:36.359
    01:48:08.148 : 01:48:08.148
    01:53:47.279 : 01:53:47.279
    02:00:22.882 : 02:00:22.882
    02:07:19.465 : 02:07:19.465
    02:18:25.422 : 02:18:25.422
    Menu #2
    ID : 11
    Codec ID : text
    Duration : 2h 24mn
    Language : English
    Encoded date : UTC 2016-06-05 12:18:12
    Tagged date : UTC 2016-06-05 12:18:12
    Bit rate mode : CBR
    Menu For : 2,1
    00:00:00.000 : 00:00:00.000
    00:04:47.662 : 00:04:47.662
    00:09:01.541 : 00:09:01.541
    00:15:31.556 : 00:15:31.556
    00:21:12.229 : 00:21:12.229
    00:26:48.774 : 00:26:48.774
    00:31:22.756 : 00:31:22.756
    00:34:20.058 : 00:34:20.058
    00:39:36.124 : 00:39:36.124
    00:47:12.872 : 00:47:12.872
    00:53:59.027 : 00:53:59.027
    01:02:27.744 : 01:02:27.744
    01:10:03.324 : 01:10:03.324
    01:23:02.477 : 01:23:02.477
    01:27:11.101 : 01:27:11.101
    01:34:50.685 : 01:34:50.685
    01:42:36.359 : 01:42:36.359
    01:48:08.148 : 01:48:08.148
    01:53:47.279 : 01:53:47.279
    02:00:22.882 : 02:00:22.882
    02:07:19.465 : 02:07:19.465
    02:18:25.422 : 02:18:25.422

    x264 лог

    x264 [info]: frame I:1289  Avg QP:18.24  size:175160
    x264 [info]: frame P:61669 Avg QP:21.35  size: 62238
    x264 [info]: frame B:144903 Avg QP:22.25  size: 31762
    x264 [info]: consecutive B-frames:  6.4%  7.7% 22.2% 19.7% 15.3% 24.7%  2.1%  0.5%  0.3%  0.1%  0.2%  0.1%  0.1%  0.1%  0.1%  0.1%  0.1%
    x264 [info]: mb I  I16..4: 14.6% 73.1% 12.3%
    x264 [info]: mb P  I16..4:  6.6% 20.8%  1.6%  P16..4: 44.8% 11.9%  8.4%  0.2%  0.1%    skip: 5.7%
    x264 [info]: mb B  I16..4:  0.8%  2.4%  0.2%  B16..8: 41.1%  7.8%  1.8%  direct:12.6%  skip:33.4%  L0:42.6% L1:47.1% BI:10.3%
    x264 [info]: 8x8 transform intra:71.8% inter:73.2%
    x264 [info]: direct mvs  spatial:98.7% temporal:1.3%
    x264 [info]: coded y,uvDC,uvAC intra: 72.4% 88.4% 72.5% inter: 27.3% 47.7% 30.4%
    x264 [info]: i16 v,h,dc,p: 31% 15%  9% 45%
    x264 [info]: i8 v,h,dc,ddl,ddr,vr,hd,vl,hu: 11% 10%  8%  9% 12% 12% 13% 11% 13%
    x264 [info]: i4 v,h,dc,ddl,ddr,vr,hd,vl,hu: 11% 12%  4%  9% 14% 13% 14% 10% 13%
    x264 [info]: i8c dc,h,v,p: 48% 17% 15% 20%
    x264 [info]: Weighted P-Frames: Y:3.2% UV:2.0%
    x264 [info]: ref P L0: 54.2% 11.4% 22.6%  9.1%  2.6%  0.1%
    x264 [info]: ref B L0: 84.7% 12.5%  2.8%
    x264 [info]: ref B L1: 92.6%  7.4%
    x264 [info]: kb/s:7997.05

    Скриншоты

    -

    Релиз подготовлен для просмотра на Apple TV, iPad, iPhone, iPod Touch.
    Для просмотра данного релиза на компьютере с ОС Windows рекомендуется использовать VLC media player
    Скачать .torrent

    Скачать торрент-файл бесплатно и на максимальной скорости!

    Как скачивать? · Что такое торрент? · Рейтинг и ограничения

    !ВНИМАНИЕ!
    Сайт не распространяет и не хранит электронные версии произведений, а занимается лишь лишь предоставлением доступа к создаваемому пользователями каталогу ссылок на торрент-файлы, которые содержат только списки хеш-сумм, убедительная просьба с жалобами обращаться напрямую к пользователю. Файлы для обмена на трекере предоставлены пользователями сайта, и администрация не несёт ответственности за их содержание. Просьба не заливать файлы, защищенные авторскими правами, а также файлы нелегального содержания!


    _________________
    [Профиль] [ЛС]
    Показать сообщения:    
    Ответить на тему

    Текущее время: Сегодня, в 09:09

    Часовой пояс: GMT + 2



    Вы не можете начинать темы
    Вы не можете отвечать на сообщения
    Вы не можете редактировать свои сообщения
    Вы не можете удалять свои сообщения
    Вы не можете голосовать в опросах
    Вы не можете прикреплять файлы к сообщениям
    Вы не можете скачивать файлы