BitTorrentTracker PerecTracker.org
BitTorrentTracker PerecTracker.org
    
Регистрация  ·  Вход
 
 · 
Забыли пароль?

  • Хоть раз в жизни / Begin again (Джон Карни / John Carney) [2013 г., США, драма, мелодрама, комедия, музыка, BDRip-AVC] Dub + Original Eng + Sub (Rus, Eng)

    Ответить на тему
     
    Автор Сообщение

    Light

    Создавать темы 05-Июн-2016 20:32

           

    [Цитировать]

    -Хоть раз в жизни / Begin again«Поверь. Решись. Рискни»Страна: США
    Студия: Apatow Productions, Exclusive Media Group, Likely Story, Sycamore Pictures
    Жанр: драма, мелодрама, комедия, музыка
    Год выпуска: 2013
    Продолжительность: 01:44:25-Перевод : Профессиональный (полное дублирование)
    Оригинальная аудиодорожка: английская
    Cубтитры: русские, английские
    Режиссер: Джон Карни / John Carney
    В ролях: Кира Найтли, Марк Руффало, Адам Левин, Джеймс Корден, Хейли Стайнфелд, Ясин Бей, Кэтрин Кинер, Эндрю Селлон, Карен Питтман, Пол Ромеро
    Описание: Они живут в сердце музыкального мира, в Нью-Йорке. Дэн - легенда шоу-бизнеса и бывший глава музыкального лейбла. Грета – музыкант и бывшая девушка рок-звезды. Но люди бывшими и оказываются для того, чтобы начать все сначала.
    Случайная встреча с Гретой дает Дэну новый шанс. Они решают вместе записать альбом. У них нет ни денег, ни профессиональных музыкантов, но все это не важно, потому что Грета и Дэн готовы к самым неожиданным поворотам и в музыке, и в любви. Их студией становится весь Нью-Йорк.-
    Сэмпл: скачать-Релиз от -
    Автор рипа: Elheym
    Качество: BDRip-AVC (источник: / Blu-ray Remux [BEGIN_AGAIN_2013_REMUX_HDCLUB] / 1080p)
    Контейнер: MKV
    Видео: 1132x612 (1.85:1), 23.976 fps, MPEG-4 AVC, ~3576 kbps avg, 0.215 bit/pixel
    Аудио #1: Русский: AC3, 5.1, 48 kHz, ~448 Кбит/с | Профессиональный (полное дублирование) |
    Аудио #2: Английский: AC3, 5.1, 48 kHz, ~448 Кбит/с | Оригинал |
    Субтитры: русские (полные), английские (форсированные [только на лирику], полные, SDH, SDH цветные)
    Главы: присутствуют, сохранены оригинальные

    MediaInfo

    Уникальный идентификатор : 214131933553242347931406726648601629134 (0xA1184F6F085739AB9D6E56B68021D1CE)
    Полное имя : Begin.again.2013.BDRip-AVC.Rus.Eng.-HQCLUB.mkv
    Формат : Matroska
    Версия формата : Version 2
    Размер файла : 3,33 Гбайт
    Продолжительность : 1 ч. 44 м.
    Общий поток : 4563 Кбит/сек
    Название фильма : Хоть раз в жизни / Begin again (2013) BDRip-AVC by Elheym [HQCLUB]
    Дата кодирования : UTC 2016-06-05 06:20:33
    Программа кодирования : mkvmerge v5.2.0 ('I can't explain') built on Dec 18 2011 18:12:03
    Библиотека кодирования : libebml v1.2.3 + libmatroska v1.3.0
    Обложка : Yes
    Attachments : cover.jpg
    Видео
    Идентификатор : 1
    Формат : AVC
    Формат/Информация : Advanced Video Codec
    Профиль формата : High@L4
    Параметр CABAC формата : Да
    Параметр ReFrames формата : 10 кадров
    Идентификатор кодека : V_MPEG4/ISO/AVC
    Продолжительность : 1 ч. 44 м.
    Битрейт : 3576 Кбит/сек
    Ширина : 1132 пикселя
    Высота : 612 пикселей
    Соотношение сторон : 1,85:1
    Режим частоты кадров : Постоянный
    Частота кадров : 23,976 (24000/1001) кадра/сек
    Цветовое пространство : YUV
    Субдискретизация насыщенности : 4:2:0
    Битовая глубина : 8 бит
    Тип развёртки : Прогрессивная
    Бит/(Пиксели*Кадры) : 0.215
    Размер потока : 2,61 Гбайт (78%)
    Заголовок : Хоть раз в жизни / Begin again (2013) BDRip-AVC by Elheym [HQCLUB]
    Библиотека кодирования : x264 core 148 r2692+54 69a6f49 t_mod_Custom [8-bit@all X86_64]
    Настройки программы : cabac=1 / ref=10 / deblock=1:-2:-2 / analyse=0x3:0x113 / me=umh / subme=11 / psy=1 / fade_compensate=0.00 / psy_rd=0.80:0.00 / mixed_ref=1 / me_range=32 / chroma_me=1 / trellis=2 / 8x8dct=1 / cqm=0 / deadzone=21,11 / fast_pskip=0 / chroma_qp_offset=-2 / threads=6 / lookahead_threads=2 / sliced_threads=0 / nr=0 / decimate=0 / interlaced=0 / bluray_compat=0 / constrained_intra=0 / fgo=0 / bframes=12 / b_pyramid=2 / b_adapt=2 / b_bias=0 / direct=3 / weightb=1 / open_gop=0 / weightp=2 / keyint=230 / keyint_min=23 / scenecut=40 / intra_refresh=0 / rc_lookahead=80 / rc=crf / mbtree=0 / crf=18.8000 / qcomp=0.70 / qpmin=0:0:0 / qpmax=69:69:69 / qpstep=4 / vbv_maxrate=20000 / vbv_bufsize=25000 / crf_max=0.0 / nal_hrd=none / filler=0 / ip_ratio=1.40 / pb_ratio=1.30 / aq=3:0.80 / aq-sensitivity=10.00 / aq-factor=1.00:1.00:1.00 / aq2=0 / aq3=1:[0.50:0.50]:[0.50:0.50]:[0.50:0.50]:[0.50:0.50] / aq3-sensitivity=10.00 / aq3-factor=[1.00:1.00]:[1.00:1.00]:[1.00:1.00] / aq3-boundary=192:64:24 / zones=2190,2366,b=2.3000/2367,2640,b=3.1000/2641,2917,b=1.8000/3092,3744,b=2.1000/3963,4117,b=2.0000/4118,5116,b=1.9000/5210,5324,b=2.0000/5415,5459,b=1.5500/5460,5532,b=2.0000/16982,19188,b=1.3000/26758,26858,b=2.8500/27839,27957,b=2.4000/28256,28339,b=2.4000/28425,28487,b=2.3000/28488,28544,b=1.9500/28880,29019,b=1.8000/29105,29193,b=2.0000/29360,29485,b=1.7500/29641,29768,b=1.9500/29769,29883,b=1.9000/29884,29943,b=1.9200/30020,30100,b=1.9200/30101,30180,b=1.5700/30181,30303,b=2.2000/30375,30484,b=2.0500/30485,30528,b=1.8000/30555,30593,b=1.9000/30636,31071,b=1.5500/32245,32439,b=1.8500/34960,35045,b=2.2000/35266,35323,b=2.5000/36194,36328,b=2.4000/36461,36906,b=2.500/46418,46581,b=2.6000/46725,46886,b=1.9500/47015,47046,b=1.8500/47139,47184,b=1.8000/47344,47480,b=2.3000/47547,47880,b=2.5000/63394,63575,b=1.8500/92019,93688,b=2.3000/141620,141759,b=3.2000/141760,142049,b=3.3000/142050,142160,b=3.42000/142161,142285,b=3.3000/142286,142424,b=2.9500/142425,142622,b=3.3000/142623,142682,b=2.9500/142832,142861,b=2.9900/142862,142943,b=3.5000/142944,143064,b=3.0000/143458,143584,b=3.5000/143585,143693,b=2.8000/143694,143757,b=2.6000/143943,144105,b=2.5000
    Язык : English
    Default : Да
    Forced : Нет
    Аудио #1
    Идентификатор : 2
    Формат : AC-3
    Формат/Информация : Audio Coding 3
    Расширение режима : CM (complete main)
    Параметр Endianness формата : Big
    Идентификатор кодека : A_AC3
    Продолжительность : 1 ч. 44 м.
    Вид битрейта : Постоянный
    Битрейт : 448 Кбит/сек
    Каналы : 6 каналов
    Расположение каналов : Front: L C R, Side: L R, LFE
    Частота : 48,0 КГц
    Частота кадров : 31,250 кадров/сек (1536 spf)
    Метод сжатия : С потерями
    Размер потока : 335 Мбайт (10%)
    Заголовок : AC3 5.1 @ 448 kbps - Dub
    Язык : Russian
    Default : Нет
    Forced : Нет
    Аудио #2
    Идентификатор : 3
    Формат : AC-3
    Формат/Информация : Audio Coding 3
    Расширение режима : CM (complete main)
    Параметр Endianness формата : Big
    Идентификатор кодека : A_AC3
    Продолжительность : 1 ч. 44 м.
    Вид битрейта : Постоянный
    Битрейт : 448 Кбит/сек
    Каналы : 6 каналов
    Расположение каналов : Front: L C R, Side: L R, LFE
    Частота : 48,0 КГц
    Частота кадров : 31,250 кадров/сек (1536 spf)
    Метод сжатия : С потерями
    Размер потока : 335 Мбайт (10%)
    Заголовок : AC3 5.1 @ 448 kbps - Original
    Язык : English
    Default : Нет
    Forced : Нет
    Текст #1
    Идентификатор : 4
    Формат : UTF-8
    Идентификатор кодека : S_TEXT/UTF8
    Идентификатор кодека/Информация : UTF-8 Plain Text
    Заголовок : Forced, Only Lyrics
    Язык : English
    Default : Да
    Forced : Нет
    Текст #2
    Идентификатор : 5
    Формат : UTF-8
    Идентификатор кодека : S_TEXT/UTF8
    Идентификатор кодека/Информация : UTF-8 Plain Text
    Заголовок : Full
    Язык : Russian
    Default : Нет
    Forced : Нет
    Текст #3
    Идентификатор : 6
    Формат : UTF-8
    Идентификатор кодека : S_TEXT/UTF8
    Идентификатор кодека/Информация : UTF-8 Plain Text
    Заголовок : Full
    Язык : English
    Default : Нет
    Forced : Нет
    Текст #4
    Идентификатор : 7
    Формат : UTF-8
    Идентификатор кодека : S_TEXT/UTF8
    Идентификатор кодека/Информация : UTF-8 Plain Text
    Заголовок : SDH
    Язык : English
    Default : Нет
    Forced : Нет
    Текст #5
    Идентификатор : 8
    Формат : UTF-8
    Идентификатор кодека : S_TEXT/UTF8
    Идентификатор кодека/Информация : UTF-8 Plain Text
    Заголовок : SDH Colored
    Язык : English
    Default : Нет
    Forced : Нет
    Меню
    00:00:00.000 : :Chapter 01
    00:04:11.168 : :Chapter 02
    00:14:54.519 : :Chapter 03
    00:20:58.715 : :Chapter 04
    00:25:27.985 : :Chapter 05
    00:31:09.326 : :Chapter 06
    00:37:08.893 : :Chapter 07
    00:42:25.793 : :Chapter 08
    00:49:11.239 : :Chapter 09
    00:53:41.301 : :Chapter 10
    00:57:56.139 : :Chapter 11
    01:01:53.168 : :Chapter 12
    01:07:04.270 : :Chapter 13
    01:12:41.314 : :Chapter 14
    01:17:24.849 : :Chapter 15
    01:21:33.972 : :Chapter 16
    01:25:44.805 : :Chapter 17
    01:28:31.264 : :Chapter 18
    01:34:04.722 : :Chapter 19
    01:39:01.686 : :Chapter 20
    01:42:38.819 : :Chapter 21

    x264 log

    x264 [info]: frame I:1119 Avg QP:15.93 size: 98722
    x264 [info]: frame P:32355 Avg QP:18.27 size: 38571
    x264 [info]: frame B:116742 Avg QP:20.31 size: 12944
    x264 [info]: consecutive B-frames: 1.7% 2.3% 6.3% 28.3% 18.6% 28.5% 6.0% 3.8% 1.5% 1.0% 0.7% 0.7% 0.6%
    x264 [info]: ref P L0: 50.4% 10.9% 14.7% 6.4% 4.9% 4.0% 3.2% 2.0% 1.8% 1.8% 0.0% 0.0%
    x264 [info]: ref B L0: 78.1% 9.3% 4.9% 2.4% 1.8% 1.4% 1.2% 0.6% 0.3%
    x264 [info]: ref B L1: 94.7% 5.3%

    Скриншоты

    Сравнения с исходником

    Источник- -Рип-
    Цитата:
    Цитата:

    • Русские субтитры набиты по дубляжу
    Скачать .torrent

    Скачать торрент-файл бесплатно и на максимальной скорости!

    Как скачивать? · Что такое торрент? · Рейтинг и ограничения

    !ВНИМАНИЕ!
    Сайт не распространяет и не хранит электронные версии произведений, а занимается лишь лишь предоставлением доступа к создаваемому пользователями каталогу ссылок на торрент-файлы, которые содержат только списки хеш-сумм, убедительная просьба с жалобами обращаться напрямую к пользователю. Файлы для обмена на трекере предоставлены пользователями сайта, и администрация не несёт ответственности за их содержание. Просьба не заливать файлы, защищенные авторскими правами, а также файлы нелегального содержания!


    _________________
    [Профиль] [ЛС]
    Показать сообщения:    
    Ответить на тему

    Текущее время: Сегодня, в 02:55

    Часовой пояс: GMT + 2



    Вы не можете начинать темы
    Вы не можете отвечать на сообщения
    Вы не можете редактировать свои сообщения
    Вы не можете удалять свои сообщения
    Вы не можете голосовать в опросах
    Вы не можете прикреплять файлы к сообщениям
    Вы не можете скачивать файлы