BitTorrentTracker PerecTracker.org
BitTorrentTracker PerecTracker.org
    
Регистрация  ·  Вход
 
 · 
Забыли пароль?

  • Страшные сказки / Tale of Tales / Il racconto dei racconti (Маттео Гарроне / Matteo Garrone) [2015, Италия, Франция, Великобритания, фэнтези, мелодрама, BDRip-AVC] DUB + Sub Rus Eng

    Ответить на тему
     
    Автор Сообщение

    Light

    Создавать темы 05-Июн-2016 20:32

           

    [Цитировать]

    Страшные сказки
    Tale of Tales | Il racconto dei racconti
    «A feast for the imagination»
    -Страна: Италия, Франция, Великобритания
    Жанр: Фэнтези, мелодрама
    Год выпуска: 2015
    Продолжительность: 02:13:39
    Перевод : Профессиональный (дублированный) iTunes
    Cубтитры: Rus, Eng-Режиссер
    Маттео Гарроне / Matteo Garrone
    В ролях:
    Сальма Хайек | Salma Hayek
    Венсан Кассель | Vincent Cassel

    Тоби Джонс, Джон С. Райлли, Ширли Хендерсон, Стэйси Мартин, Джесси Кейв, Альба Рорвахер-ОписаниеМаги и волшебники, короли и королевы, красавицы-принцессы и страшилы-великаны населяют эту потрясающую готическую фантазию. Сластолюбивый Король Одинокого Утеса берет в жены прелестную деву, а она превращается в уродливую старуху. Отважный Король Долины Туманов отправляется на бой с драконом, поскольку волшебник предсказал, что королева понесет ребенка, если съест сердце дракона. Ну, а Король Диких Гор с любовью выращивает гигантскую блоху, а родную дочь без тени сожаления отдает в жены горному огру. За стенами величественных замков строятся коварные козни, даются безрассудные обеты, там страстно любят и жестоко убивают…-
    IMDb: 6.40 (10 996)
    Сэмпл
    Качество видео: BDRip-AVC BDRemux 1080p
    Формат видео: MKV
    Видео кодек: AVC
    Аудио кодек: AC3
    Видео: AVC 1230 Kbps 800 x 340 (2.353) 24.000 fps
    Аудио: AC-3 384 Kbps 6 channels, 48.0 KHz DUB iTunes
    MediaInfo | Log

    Log

    x264 [info]: frame I:996 Avg QP:14.97 size: 54732
    x264 [info]: frame P:41717 Avg QP:17.18 size: 15809
    x264 [info]: frame B:149755 Avg QP:19.75 size: 3674
    x264 [info]: consecutive B-frames: 2.0% 3.2% 8.0% 18.3% 19.6% 35.0% 5.3% 3.0% 1.8% 0.7% 0.9% 0.6% 0.7% 0.6% 0.5%
    x264 [info]: mb I I16..4: 5.4% 62.7% 31.9%
    x264 [info]: mb P I16..4: 0.4% 7.0% 3.2% P16..4: 29.3% 31.0% 17.3% 4.8% 1.0% skip: 6.0%
    x264 [info]: mb B I16..4: 0.1% 0.8% 0.5% B16..8: 30.8% 19.5% 3.4% direct: 4.9% skip:40.1% L0:39.9% L1:42.9% BI:17.1%
    x264 [info]: 8x8 transform intra:63.0% inter:49.1%
    x264 [info]: direct mvs spatial:100.0% temporal:0.0%
    x264 [info]: coded y,uvDC,uvAC intra: 80.4% 82.2% 61.1% inter: 18.8% 12.0% 3.3%
    x264 [info]: i16 v,h,dc,p: 43% 18% 7% 31%
    x264 [info]: i8 v,h,dc,ddl,ddr,vr,hd,vl,hu: 14% 8% 9% 9% 12% 12% 11% 12% 13%
    x264 [info]: i4 v,h,dc,ddl,ddr,vr,hd,vl,hu: 47% 6% 8% 5% 8% 7% 7% 6% 7%
    x264 [info]: i8c dc,h,v,p: 35% 28% 24% 14%
    x264 [info]: Weighted P-Frames: Y:5.8% UV:3.3%
    x264 [info]: ref P L0: 51.7% 12.5% 12.5% 5.7% 4.0% 3.5% 2.7% 1.8% 1.5% 1.4% 1.2% 1.4% 0.1% 0.0%
    x264 [info]: ref B L0: 76.8% 9.6% 5.0% 2.4% 1.8% 1.4% 1.1% 0.7% 0.7% 0.4% 0.2%
    x264 [info]: ref B L1: 94.3% 5.7%
    x264 [info]: kb/s:1261.13
    x264 [total]: encoded 192468 frames, 17.57 fps, 1261.13 kb/s, duration 3:02:36.43
    Format : Matroska
    Format version : Version 4 / Version 2
    File size : 1.54 GiB
    Duration : 2h 13mn
    Overall bit rate : 1 647 Kbps
    Encoded date : UTC 2016-06-05 09:01:02
    Writing application : mkvmerge v6.7.0 ('Back to the Ground') 32bit built on Jan 8 2014 15:03:17
    Writing library : libebml v1.3.0 + libmatroska v1.4.1
    Video
    ID : 1
    Format : AVC
    Format/Info : Advanced Video Codec
    Format profile : High@L4.1
    Format settings, CABAC : Yes
    Format settings, ReFrames : 12 frames
    Codec ID : V_MPEG4/ISO/AVC
    Duration : 2h 13mn
    Bit rate : 1 230 Kbps
    Width : 800 pixels
    Height : 340 pixels
    Display aspect ratio : 2.35:1
    Frame rate mode : Constant
    Frame rate : 24.000 fps
    Color space : YUV
    Chroma subsampling : 4:2:0
    Bit depth : 8 bits
    Scan type : Progressive
    Bits/(Pixel*Frame) : 0.188
    Stream size : 1.15 GiB (75%)
    Title : Il racconto dei racconti (2015) [perectracker.org]
    Writing library : x264 core 148 r2692kMod 64f4e24
    Encoding settings : cabac=1 / ref=12 / deblock=1:-2:-2 / analyse=0x3:0x133 / me=umh / subme=11 / psy=1 / fade_compensate=0.00 / psy_rd=1.00:0.05 / mixed_ref=1 / me_range=48 / chroma_me=1 / trellis=2 / 8x8dct=1 / cqm=0 / deadzone=21,11 / fast_pskip=0 / chroma_qp_offset=-3 / threads=11 / lookahead_threads=2 / sliced_threads=0 / nr=0 / decimate=1 / interlaced=0 / bluray_compat=0 / constrained_intra=0 / fgo=0 / bframes=14 / b_pyramid=2 / b_adapt=2 / b_bias=0 / direct=3 / weightb=1 / open_gop=0 / weightp=2 / keyint=250 / keyint_min=23 / scenecut=40 / intra_refresh=0 / rc_lookahead=60 / rc=crf / mbtree=0 / crf=17.7000 / qcomp=0.60 / qpmin=0 / qpmax=69 / qpstep=4 / vbv_maxrate=50000 / vbv_bufsize=62500 / crf_max=0.0 / nal_hrd=none / filler=0 / ip_ratio=1.40 / pb_ratio=1.30 / aq=3:0.90
    Language : English
    Default : Yes
    Forced : No
    Audio
    ID : 2
    Format : AC-3
    Format/Info : Audio Coding 3
    Mode extension : CM (complete main)
    Format settings, Endianness : Big
    Codec ID : A_AC3
    Duration : 2h 13mn
    Bit rate mode : Constant
    Bit rate : 384 Kbps
    Channel(s) : 6 channels
    Channel positions : Front: L C R, Side: L R, LFE
    Sampling rate : 48.0 KHz
    Frame rate : 31.250 fps (1536 spf)
    Compression mode : Lossy
    Stream size : 367 MiB (23%)
    Title : DUB [iTunes]
    Language : Russian
    Default : Yes
    Forced : No
    Text #1
    ID : 3
    Format : UTF-8
    Codec ID : S_TEXT/UTF8
    Codec ID/Info : UTF-8 Plain Text
    Title : Full
    Language : Russian
    Default : No
    Forced : No
    Text #2
    ID : 4
    Format : UTF-8
    Codec ID : S_TEXT/UTF8
    Codec ID/Info : UTF-8 Plain Text
    Title : Full [Leonid55]
    Language : Russian
    Default : No
    Forced : No
    Text #3
    ID : 5
    Format : UTF-8
    Codec ID : S_TEXT/UTF8
    Codec ID/Info : UTF-8 Plain Text
    Title : Full
    Language : English
    Default : No
    Forced : No
    Menu
    00:00:00.000 : en:00:00:00.000
    00:15:17.292 : en:00:15:17.292
    00:29:54.167 : en:00:29:54.167
    00:45:27.000 : en:00:45:27.000
    01:04:40.583 : en:01:04:40.583
    01:31:59.292 : en:01:31:59.292
    01:46:44.292 : en:01:46:44.292
    01:59:27.125 : en:01:59:27.125

    Скриншоты




    Скачать .torrent

    Скачать торрент-файл бесплатно и на максимальной скорости!

    Как скачивать? · Что такое торрент? · Рейтинг и ограничения

    !ВНИМАНИЕ!
    Сайт не распространяет и не хранит электронные версии произведений, а занимается лишь лишь предоставлением доступа к создаваемому пользователями каталогу ссылок на торрент-файлы, которые содержат только списки хеш-сумм, убедительная просьба с жалобами обращаться напрямую к пользователю. Файлы для обмена на трекере предоставлены пользователями сайта, и администрация не несёт ответственности за их содержание. Просьба не заливать файлы, защищенные авторскими правами, а также файлы нелегального содержания!


    _________________
    [Профиль] [ЛС]
    Показать сообщения:    
    Ответить на тему

    Текущее время: Сегодня, в 04:08

    Часовой пояс: GMT + 2



    Вы не можете начинать темы
    Вы не можете отвечать на сообщения
    Вы не можете редактировать свои сообщения
    Вы не можете удалять свои сообщения
    Вы не можете голосовать в опросах
    Вы не можете прикреплять файлы к сообщениям
    Вы не можете скачивать файлы