BitTorrentTracker PerecTracker.org
BitTorrentTracker PerecTracker.org
    
Регистрация  ·  Вход
 
 · 
Забыли пароль?

  • Убийцы фазана / Охотники на фазанов / Fasandræberne (Миккель Нёргор / Mikkel Nørgaard) [2014, Дания, Криминал, драма, HDRip] AVO (Алексеев)

    Ответить на тему
     
    Автор Сообщение

    Light

    Создавать темы 05-Июн-2016 20:32

           

    [Цитировать]

    Убийцы фазана / Охотники на фазанов / Fasandræberne
    Страна: Дания
    Жанр: Криминал, драма
    Год выпуска: 2014
    Продолжительность: 01:59:40
    Перевод: Авторский (одноголосый закадровый) (Алексеев)
    Cубтитры: нет
    Режиссер: Миккель Нёргор / Mikkel Nørgaard
    В ролях: Николай Ли Каас, Фарес Фарес, Даница Чурчич, Сара-Софи Бусснин, Йоханна Шмидт, Йохан Филип Асбек, Давид Денсик
    Описание: Жестокое убийство двух подростков, чьи тела были обнаружены в загородном домике, взбудоражило все местное население. Тогда полиция главными обвиняемыми считала их одноклассников, но никак не смогли это доказать. Однако, вскоре местный житель сам пришел с повинной в полицейский участок. Дело было закрыто и отправлено в архив. Спустя двадцать лет после этого события, дело убитых парней случайно попадает в поле зрения детективу Карлу Мерку и его напарнику. Изучив его и найдя в нем много несоответствий, любознательный детектив решает вновь открыть это дело и отправить на расследование ...
    Доп. информация: Внимание : - Категория просмотра 18+
    Сэмпл: https://yadi.sk/i/TkvxHKOYsGBJm
    Качество видео: HDRip
    Формат видео: AVI
    Видео: XviD 1.2.1, 720x304, (2,35:1), 24,000 fps, 1241 Кбит/с, 8 бит
    Аудио: Русский (AC-3, 6 ch (Front: L C R, Side: L R, LFE), 48,0 KHz, 384 Kbps)

    MediaInfo

    Общее
    Полное имя : F:\Видеофильмы\В и д е о\Охотники на фазанов (боевик драма 2014г).avi
    Формат : AVI
    Формат/Информация : Audio Video Interleave
    Профиль формата : OpenDML
    Настройки формата : rec
    Размер файла : 1,36 Гбайт
    Продолжительность : 1 ч. 59 м.
    Общий поток : 1630 Кбит/сек
    Программа кодирования : AVI-Mux GUI 1.17.8.3, Feb 16 201019:42:50
    Видео
    Идентификатор : 0
    Формат : MPEG-4 Visual
    Профиль формата : Advanced Simple@L5
    Параметр BVOP формата : 2
    Параметр QPel формата : Нет
    Параметр GMC формата : Без точки перехода
    Параметр матрицы формата : Default (MPEG)
    Идентификатор кодека : XVID
    Идентификатор кодека/Подсказка : XviD
    Продолжительность : 1 ч. 59 м.
    Битрейт : 1241 Кбит/сек
    Ширина : 720 пикселей
    Высота : 304 пикселя
    Соотношение сторон : 2,35:1
    Частота кадров : 24,000 кадра/сек
    Цветовое пространство : YUV
    Субдискретизация насыщенности : 4:2:0
    Битовая глубина : 8 бит
    Тип развёртки : Прогрессивная
    Метод сжатия : С потерями
    Бит/(Пиксели*Кадры) : 0.236
    Размер потока : 1,04 Гбайт (76%)
    Библиотека кодирования : XviD 1.2.1 (UTC 2008-12-04)
    Аудио
    Идентификатор : 1
    Формат : AC-3
    Формат/Информация : Audio Coding 3
    Расширение режима : CM (complete main)
    Параметр Endianness формата : Big
    Идентификатор кодека : 2000
    Продолжительность : 1 ч. 59 м.
    Вид битрейта : Постоянный
    Битрейт : 384 Кбит/сек
    Каналы : 6 каналов
    Расположение каналов : Front: L C R, Side: L R, LFE
    Частота : 48,0 КГц
    Частота кадров : 31,250 кадров/сек (1536 spf)
    Метод сжатия : С потерями
    Размер потока : 329 Мбайт (24%)
    Выравнивание : Соединение по промежуткам
    Продолжительность промежутка : 64 мс. (1,54 видеокадра)
    Время предзагрузки промежутка : 192 мс.
    Заголовок : 121

    Скриншот c названием фильма

    Скриншоты

    Скачать .torrent

    Скачать торрент-файл бесплатно и на максимальной скорости!

    Как скачивать? · Что такое торрент? · Рейтинг и ограничения

    !ВНИМАНИЕ!
    Сайт не распространяет и не хранит электронные версии произведений, а занимается лишь лишь предоставлением доступа к создаваемому пользователями каталогу ссылок на торрент-файлы, которые содержат только списки хеш-сумм, убедительная просьба с жалобами обращаться напрямую к пользователю. Файлы для обмена на трекере предоставлены пользователями сайта, и администрация не несёт ответственности за их содержание. Просьба не заливать файлы, защищенные авторскими правами, а также файлы нелегального содержания!


    _________________
    [Профиль] [ЛС]
    Показать сообщения:    
    Ответить на тему

    Текущее время: Сегодня, в 22:35

    Часовой пояс: GMT + 2



    Вы не можете начинать темы
    Вы не можете отвечать на сообщения
    Вы не можете редактировать свои сообщения
    Вы не можете удалять свои сообщения
    Вы не можете голосовать в опросах
    Вы не можете прикреплять файлы к сообщениям
    Вы не можете скачивать файлы