BitTorrentTracker PerecTracker.org
BitTorrentTracker PerecTracker.org
    
Регистрация  ·  Вход
 
 · 
Забыли пароль?

  • Кровавое сомбреро / Blood Sombrero (Абель Берри /Abel Berry, Дженнифер Мишель Стоун II / Jennifer Michelle Stone II) [2016, США, боевик, WEB-DLRip] MVO (Parovoz Production)

    Ответить на тему
     
    Автор Сообщение

    rechyn

    Создавать темы 05-Июн-2016 20:32

           

    [Цитировать]

    Кровавое сомбреро / Blood Sombrero
    Страна: США
    Жанр: боевик
    Год выпуска: 2016
    Продолжительность: 01:25:43
    Перевод: Любительский (многоголосый закадровый) Parovoz Production
    Cубтитры: нет
    Оригинальная аудиодорожка: нет
    Режиссер: Абель Берри /Abel Berry , Дженнифер Мишель Стоун II / Jennifer Michelle Stone II
    В ролях: Паула Марченадо, Ник Гомес, Том Проктер, Билли Блэр, Шери Дэвис, Лэйси Эрнандес, Кэсси Ши Уотсон, Гай В Дж Мэйфилд, Аманда Мари, Натали Дикинсон
    Описание: Фильм о страшной истории, которая сможет задеть даже самого бесстрашного. Иногда предметы могут изменить нашу жизнь. Часто люди кардинально меняются сами и думают, что это происходит с возрастом, но бывает такое, что их меняет именно то, что их окружает. А когда в игру вступают еще и люди, то финал такой истории может оказаться фатальным и не только для главных участников.
    Доп. информация: Присутствует ненормативная лексика.
    Сэмпл: http://sendfile.su/1239904
    Качество видео: WEB-DLRip
    Формат видео: AVI
    Видео: 720x384 (1.88:1), 23.976 fps, XviD build 73 ~2123 kbps avg, 0.32 bit/pixel
    Аудио: 48 kHz, AC3 Dolby Digital, 2/0 (L,R) ch, ~192 kbps

    MediaInfo

    General
    Complete name : E:\Zona Downloads\Blood.Sombrero.2016.WEB-DLRip.avi
    Format : AVI
    Format/Info : Audio Video Interleave
    File size : 1.39 GiB
    Duration : 1h 25mn
    Overall bit rate : 2 325 Kbps
    Writing application : VirtualDubMod 1.5.10.3 | www.virtualdub-fr.org || (build 2550/release)
    Writing library : VirtualDubMod build 2550/release
    Video
    ID : 0
    Format : MPEG-4 Visual
    Format profile : Advanced Simple@L5
    Format settings, BVOP : 2
    Format settings, QPel : No
    Format settings, GMC : No warppoints
    Format settings, Matrix : Default (H.263)
    Codec ID : XVID
    Codec ID/Hint : XviD
    Duration : 1h 25mn
    Bit rate : 2 124 Kbps
    Width : 720 pixels
    Height : 384 pixels
    Display aspect ratio : 1.85:1
    Frame rate : 23.976 fps
    Color space : YUV
    Chroma subsampling : 4:2:0
    Bit depth : 8 bits
    Scan type : Progressive
    Compression mode : Lossy
    Bits/(Pixel*Frame) : 0.320
    Stream size : 1.27 GiB (91%)
    Writing library : XviD 73
    Audio
    ID : 1
    Format : AC-3
    Format/Info : Audio Coding 3
    Mode extension : CM (complete main)
    Format settings, Endianness : Big
    Codec ID : 2000
    Duration : 1h 25mn
    Bit rate mode : Constant
    Bit rate : 192 Kbps
    Channel(s) : 2 channels
    Channel positions : Front: L R
    Sampling rate : 48.0 KHz
    Bit depth : 16 bits
    Compression mode : Lossy
    Stream size : 118 MiB (8%)
    Alignment : Split accross interleaves
    Interleave, duration : 42 ms (1.00 video frame)
    Interleave, preload duration : 500 ms

    Скриншот c названием фильма

    Скриншоты

    Скачать .torrent

    Скачать торрент-файл бесплатно и на максимальной скорости!

    Как скачивать? · Что такое торрент? · Рейтинг и ограничения

    !ВНИМАНИЕ!
    Сайт не распространяет и не хранит электронные версии произведений, а занимается лишь лишь предоставлением доступа к создаваемому пользователями каталогу ссылок на торрент-файлы, которые содержат только списки хеш-сумм, убедительная просьба с жалобами обращаться напрямую к пользователю. Файлы для обмена на трекере предоставлены пользователями сайта, и администрация не несёт ответственности за их содержание. Просьба не заливать файлы, защищенные авторскими правами, а также файлы нелегального содержания!


    _________________
    [Профиль] [ЛС]
    Показать сообщения:    
    Ответить на тему

    Текущее время: Сегодня, в 08:14

    Часовой пояс: GMT + 2



    Вы не можете начинать темы
    Вы не можете отвечать на сообщения
    Вы не можете редактировать свои сообщения
    Вы не можете удалять свои сообщения
    Вы не можете голосовать в опросах
    Вы не можете прикреплять файлы к сообщениям
    Вы не можете скачивать файлы