BitTorrentTracker PerecTracker.org
BitTorrentTracker PerecTracker.org
    
Регистрация  ·  Вход
 
 · 
Забыли пароль?

  • Что же нам с тобой делать? / Qu\'est-ce qu\'on va faire de toi? (Жан-Даниэль Верег / Jean-Daniel Verhaeghe) [2012, Франция, исторический, биографическая драма, экранизация, DVB] Original (Fre) + Sub (Rus, Eng, Fre, Deu)

    Ответить на тему
     
    Автор Сообщение

    Light

    Создавать темы 05-Июн-2016 20:31

           

    [Цитировать]

    Что же нам с тобой делать?
    Qu'est-ce qu'on va faire de toi?-Страна: Франция
    Жанр: исторический, биографическая драма, экранизация
    Год выпуска: 2012
    Продолжительность: 01:29:13
    Перевод: Субтитры (перевод И.Рыбкиной, Éclair Group)
    Cубтитры: русские, английские, французские, немецкие, нидерландские, румынские
    Оригинальная аудиодорожка: французский
    Режиссер: Жан-Даниэль Верег / Jean-Daniel VerhaegheВ ролях: Симон Абкарян / Simon Abkarian (Abraham Drucker), Франсуаз Жиллар / Françoise Gillard (Lola Drucker), Лука Акербо / Louca Acerbo (Jean Drucker à 20 ans), Жереми Дюваль / Jérémie Duvall (Michel Drucker à 16 ans), Николя Ромпто / Nicolas Rompteaux (Michel Drucker à 11 ans), Натали Берсанетти / Nathalie Bersanetti (Directrice), Марк Боднар / Marc Bodnar (Lucien), Йоханнес Оливер Хамм / Johannes Oliver Hamm (Capitaine), Изабель Рено / Isabelle Renauld (La psy)
    Описание: По одноименной автобиографической книге одного из знаменитых французских телеведущих, офицера Ордена Почетного легиона, Мишеля Дрюкера / Michel Drucker (2007).
    1953 год. 11-летний Мишель Дрюкер интересуется Тур де Франс больше, чем учебой. Годы проходят, и его братья добиваются успеха в жизни, пока сам Мишель переживает неудачу за неудачей к большому разочарованию его родителей... Однажды вечером 1965 года отец Мишеля смотрит телевизор и с удивлением видит, что его сын, доставлявший ему некогда столько неудобств, ведет национальную спортивную передачу…
    Доп. информация: Hot Bird (13.0°E) TV5MONDE Europe DVB-S

    Качество видео: DVB
    Формат видео: TS
    Видео: MPEG Video 2, 720x576@1024x576 (16:9), 25 fps, ~3256 kbps avg, 0.314 bit/pixel
    Аудио: MPEG Audio 2, 2 ch, 48 kHz, 192 kbps - французский
    Формат субтитров: PGS

    MediaInfo

    GeneralID : 1 (0x1)Complete name : E:\My Torrents 2\[apreder]Qu'est-ce_qu'on_va_faire_de_toi(2012)DVB.tsFormat : MPEG-TSFile size : 2.26 GiBDuration : 1h 29mnOverall bit rate mode : VariableOverall bit rate : 3 629 KbpsMaximum Overall bit rate : 35.5 Mbps
    VideoID : 4113 (0x1011)Menu ID : 1 (0x1)Format : MPEG VideoFormat version : Version 2Format profile : Main@MainFormat settings, BVOP : YesFormat settings, Matrix : CustomFormat settings, GOP : M=4, N=12Format settings, picture structure : FrameCodec ID : 2Duration : 1h 29mnBit rate mode : VariableBit rate : 3 256 KbpsWidth : 720 pixelsHeight : 576 pixelsDisplay aspect ratio : 16:9Frame rate : 25.000 fpsStandard : PALColor space : YUVChroma subsampling : 4:2:0Bit depth : 8 bitsScan type : InterlacedScan order : Top Field FirstCompression mode : LossyBits/(Pixel*Frame) : 0.314Time code of first frame : 00:00:00:00Time code source : Group of pictures headerGOP, Open/Closed : OpenGOP, Open/Closed of first frame : ClosedStream size : 2.03 GiB (90%)
    AudioID : 4352 (0x1100)Menu ID : 1 (0x1)Format : MPEG AudioFormat version : Version 1Format profile : Layer 2Mode : Joint stereoMode extension : Intensity Stereo + MS StereoCodec ID : 4Duration : 1h 29mnBit rate mode : ConstantBit rate : 192 KbpsChannel(s) : 2 channelsSampling rate : 48.0 KHzCompression mode : LossyStream size : 123 MiB (5%)Language : French
    Text #1ID : 4608 (0x1200)Menu ID : 1 (0x1)Format : PGSCodec ID : 144Duration : 1h 29mnDelay relative to video : 1s 240msLanguage : Russian
    Text #2ID : 4609 (0x1201)Menu ID : 1 (0x1)Format : PGSCodec ID : 144Delay relative to video : 1s 240msLanguage : English
    Text #3ID : 4610 (0x1202)Menu ID : 1 (0x1)Format : PGSCodec ID : 144Duration : 1h 29mnDelay relative to video : 1s 280msLanguage : French
    Text #4ID : 4611 (0x1203)Menu ID : 1 (0x1)Format : PGSCodec ID : 144Duration : 1h 29mnDelay relative to video : 1s 240msLanguage : German
    Text #5ID : 4612 (0x1204)Menu ID : 1 (0x1)Format : PGSCodec ID : 144Duration : 1h 29mnDelay relative to video : 1s 200msLanguage : Dutch
    Text #6ID : 4613 (0x1205)Menu ID : 1 (0x1)Format : PGSCodec ID : 144Delay relative to video : 1s 200msLanguage : rom

    Скриншот c названием фильма

    Скриншоты

    Резервные скриншоты


    -[1'008]
    Скачать .torrent

    Скачать торрент-файл бесплатно и на максимальной скорости!

    Как скачивать? · Что такое торрент? · Рейтинг и ограничения

    !ВНИМАНИЕ!
    Сайт не распространяет и не хранит электронные версии произведений, а занимается лишь лишь предоставлением доступа к создаваемому пользователями каталогу ссылок на торрент-файлы, которые содержат только списки хеш-сумм, убедительная просьба с жалобами обращаться напрямую к пользователю. Файлы для обмена на трекере предоставлены пользователями сайта, и администрация не несёт ответственности за их содержание. Просьба не заливать файлы, защищенные авторскими правами, а также файлы нелегального содержания!


    _________________
    [Профиль] [ЛС]
    Показать сообщения:    
    Ответить на тему

    Текущее время: Сегодня, в 08:25

    Часовой пояс: GMT + 2



    Вы не можете начинать темы
    Вы не можете отвечать на сообщения
    Вы не можете редактировать свои сообщения
    Вы не можете удалять свои сообщения
    Вы не можете голосовать в опросах
    Вы не можете прикреплять файлы к сообщениям
    Вы не можете скачивать файлы