BitTorrentTracker PerecTracker.org
BitTorrentTracker PerecTracker.org
    
Регистрация  ·  Вход
 
 · 
Забыли пароль?

  • Кловерфилд, 10 / 10 Cloverfield Lane (Дэн Трактенберг / Dan Trachtenberg) [2016, США, ужасы, фантастика, триллер, драма, BDRip-AVC] Dub (Line) + Original + Sub (rus, eng)

    Ответить на тему
     
    Автор Сообщение

    rechyn

    Создавать темы 05-Июн-2016 12:07

           

    [Цитировать]

    Кловерфилд, 10 / 10 Cloverfield Lane«Монстры бывают разные»-Страна: США
    Жанр: ужасы, фантастика, триллер, драма
    Год выпуска: 2016
    Продолжительность: 01:43:35
    Перевод: Профессиональный (полное дублирование) (LINE)
    Оригинальная аудиодорожка: английский
    Cубтитры: русские (полные) английские (полные, SDH)
    Навигация по главам: есть
    Режиссеры: Дэн Трактенберг / Dan Trachtenberg
    В ролях: Джон Гудман, Мэри Элизабет Уинстэд, Джон Галлахер мл., Дуглас М. Гриффин, Сюзанн Крайер, Брэдли Купер, Сумали Монтано, Синди Хоган, Мат Ваиро
    Описание: Проснувшись после автомобильной аварии, девушка оказывается в подвале человека, утверждающего, что он спас ей жизнь от химической атаки, которая сделала мир за пределами бункера непригодным для жизни.

    Качество видео: BDRip-AVC (исходник - BDRemux|10.Cloverfield.Lane.2016.1080p.BluRay.REMUX.AVC.DTS-HD.MA.TrueHD.7.1.Atmos-RARBG)
    Формат видео: MKV
    Видео: x264, 1152х480 (2.40:1), 23,976 fps, ~2235 kbps, 0.169 bit/pixel
    Аудио 1: 48 kHz, AC3 Dolby Digital, 2/0 (L,R) ch, ~256 kbps [русский]
    Аудио 2: 48 kHz, AC3 Dolby Digital, 3/2 (L,C,R,l,r) + LFE ch, ~384 kbps [английский]
    Формат субтитров: softsub (SRT)
    MediaInfo | x264 log
    Format : Matroska
    Format version : Version 4 / Version 2
    File size : 2.08 GiB
    Duration : 1h 43mn
    Overall bit rate : 2 871 Kbps
    Movie name : Кловерфилд, 10 / 10 Cloverfield Lane (2016) :: AFM ::
    Encoded date : UTC 2016-06-04 22:52:43
    Writing application : mkvmerge v8.3.0 ('Over the Horizon') 32bit
    Writing library : libebml v1.3.1 + libmatroska v1.4.2
    Video
    ID : 1
    Format : AVC
    Format/Info : Advanced Video Codec
    Format profile : High@L4.1
    Format settings, CABAC : Yes
    Format settings, ReFrames : 13 frames
    Codec ID : V_MPEG4/ISO/AVC
    Duration : 1h 43mn
    Bit rate : 2 235 Kbps
    Width : 1 152 pixels
    Height : 480 pixels
    Display aspect ratio : 2.40:1
    Frame rate mode : Constant
    Frame rate : 23.976 fps
    Color space : YUV
    Chroma subsampling : 4:2:0
    Bit depth : 8 bits
    Scan type : Progressive
    Bits/(Pixel*Frame) : 0.169
    Stream size : 1.57 GiB (76%)
    Title : BDRip by AFM [RuTracker.org]
    Writing library : x264 core 148 r2665+53 6629127 t_mod_Custom [8-bit@all X86_64]
    Encoding settings : cabac=1 / ref=13 / deblock=1:-3:-2 / analyse=0x3:0x113 / me=umh / subme=10 / psy=1 / fade_compensate=0.00 / psy_rd=1.00:0.00 / mixed_ref=1 / me_range=32 / chroma_me=1 / trellis=2 / 8x8dct=1 / cqm=0 / deadzone=21,11 / fast_pskip=0 / chroma_qp_offset=-2 / threads=6 / lookahead_threads=1 / sliced_threads=0 / nr=0 / decimate=0 / interlaced=0 / bluray_compat=0 / constrained_intra=0 / fgo=0 / bframes=13 / b_pyramid=2 / b_adapt=2 / b_bias=0 / direct=3 / weightb=1 / open_gop=0 / weightp=2 / keyint=250 / keyint_min=23 / scenecut=40 / intra_refresh=0 / rc_lookahead=40 / rc=2pass / mbtree=0 / bitrate=2235 / ratetol=1.0 / qcomp=0.65 / qpmin=0:0:0 / qpmax=69:69:69 / qpstep=4 / cplxblur=20.0 / qblur=0.5 / vbv_maxrate=50000 / vbv_bufsize=62500 / nal_hrd=none / filler=0 / ip_ratio=1.35 / pb_ratio=1.30 / aq=1:0.90 / aq-sensitivity=10.00 / aq-factor=1.00:1.00:1.00 / aq2=0 / aq3=0
    Language : English
    Default : Yes
    Forced : No
    Audio #1
    ID : 2
    Format : AC-3
    Format/Info : Audio Coding 3
    Mode extension : CM (complete main)
    Format settings, Endianness : Big
    Codec ID : A_AC3
    Duration : 1h 43mn
    Bit rate mode : Constant
    Bit rate : 256 Kbps
    Channel(s) : 2 channels
    Channel positions : Front: L R
    Sampling rate : 48.0 KHz
    Compression mode : Lossy
    Stream size : 190 MiB (9%)
    Title : Dub [Line] AC3 2.0 ~256 kbps
    Language : Russian
    Default : Yes
    Forced : No
    Audio #2
    ID : 3
    Format : AC-3
    Format/Info : Audio Coding 3
    Mode extension : CM (complete main)
    Format settings, Endianness : Big
    Codec ID : A_AC3
    Duration : 1h 43mn
    Bit rate mode : Constant
    Bit rate : 384 Kbps
    Channel(s) : 6 channels
    Channel positions : Front: L C R, Side: L R, LFE
    Sampling rate : 48.0 KHz
    Compression mode : Lossy
    Stream size : 284 MiB (13%)
    Title : Original, AC3 5.1 ~384 kbps
    Language : English
    Default : No
    Forced : No
    Text #1
    ID : 4
    Format : UTF-8
    Codec ID : S_TEXT/UTF8
    Codec ID/Info : UTF-8 Plain Text
    Language : Russian
    Default : No
    Forced : No
    Text #2
    ID : 5
    Format : UTF-8
    Codec ID : S_TEXT/UTF8
    Codec ID/Info : UTF-8 Plain Text
    Language : English
    Default : No
    Forced : No
    Text #3
    ID : 6
    Format : UTF-8
    Codec ID : S_TEXT/UTF8
    Codec ID/Info : UTF-8 Plain Text
    Title : SDH
    Language : English
    Default : No
    Forced : No
    Menu
    00:00:00.000 : en:Chapter 01
    00:05:55.605 : en:Chapter 02
    00:14:52.517 : en:Chapter 03
    00:19:18.157 : en:Chapter 04
    00:24:11.992 : en:Chapter 05
    00:32:21.940 : en:Chapter 06
    00:42:59.243 : en:Chapter 07
    00:47:47.740 : en:Chapter 08
    00:53:37.089 : en:Chapter 09
    00:57:00.626 : en:Chapter 10
    01:03:10.745 : en:Chapter 11
    01:11:20.193 : en:Chapter 12
    01:15:49.420 : en:Chapter 13
    01:24:21.265 : en:Chapter 14
    01:28:19.085 : en:Chapter 15
    01:37:31.512 : en:Chapter 16

    x264

    x264 [info]: frame I:986 Avg QP:14.53 size: 75952
    x264 [info]: frame P:29835 Avg QP:17.25 size: 23958
    x264 [info]: frame B:118184 Avg QP:19.19 size: 7969
    x264 [info]: consecutive B-frames: 2.1% 2.4% 8.1% 6.4% 11.5% 53.7% 5.3% 2.5% 1.5% 1.4% 1.4% 1.2% 1.2% 1.2%
    x264 [info]: mb I I16..4: 7.0% 83.7% 9.3%
    x264 [info]: mb P I16..4: 1.4% 9.7% 0.7% P16..4: 37.6% 26.6% 15.9% 0.0% 0.0% skip: 8.0%
    x264 [info]: mb B I16..4: 0.1% 0.4% 0.0% B16..8: 39.6% 11.1% 3.2% direct: 4.2% skip:41.4% L0:47.9% L1:46.1% BI: 6.0%
    x264 [info]: 8x8 transform intra:82.2% inter:60.5%
    x264 [info]: direct mvs spatial:98.6% temporal:1.4%
    x264 [info]: coded y,uvDC,uvAC intra: 84.8% 74.7% 53.4% inter: 24.1% 17.5% 7.0%
    x264 [info]: i16 v,h,dc,p: 45% 11% 12% 31%
    x264 [info]: i8 v,h,dc,ddl,ddr,vr,hd,vl,hu: 8% 7% 10% 10% 14% 13% 13% 12% 12%
    x264 [info]: i4 v,h,dc,ddl,ddr,vr,hd,vl,hu: 7% 6% 5% 12% 17% 15% 14% 12% 13%
    x264 [info]: i8c dc,h,v,p: 44% 23% 16% 16%
    x264 [info]: Weighted P-Frames: Y:98.0% UV:1.7%
    x264 [info]: ref P L0: 42.2% 7.5% 18.5% 6.8% 6.2% 4.1% 4.1% 2.1% 2.1% 1.6% 1.8% 1.3% 1.4% 0.2% 0.0%
    x264 [info]: ref B L0: 58.5% 14.7% 8.3% 4.6% 3.4% 3.0% 2.4% 1.6% 1.3% 1.2% 0.7% 0.3%
    x264 [info]: ref B L1: 89.4% 10.6%
    x264 [info]: kb/s:2228.95

    Скриншоты

    с названием

    [/URL]
    Скачать .torrent

    Скачать торрент-файл бесплатно и на максимальной скорости!

    Как скачивать? · Что такое торрент? · Рейтинг и ограничения

    !ВНИМАНИЕ!
    Сайт не распространяет и не хранит электронные версии произведений, а занимается лишь лишь предоставлением доступа к создаваемому пользователями каталогу ссылок на торрент-файлы, которые содержат только списки хеш-сумм, убедительная просьба с жалобами обращаться напрямую к пользователю. Файлы для обмена на трекере предоставлены пользователями сайта, и администрация не несёт ответственности за их содержание. Просьба не заливать файлы, защищенные авторскими правами, а также файлы нелегального содержания!


    _________________
    [Профиль] [ЛС]
    Показать сообщения:    
    Ответить на тему

    Текущее время: Сегодня, в 16:18

    Часовой пояс: GMT + 2



    Вы не можете начинать темы
    Вы не можете отвечать на сообщения
    Вы не можете редактировать свои сообщения
    Вы не можете удалять свои сообщения
    Вы не можете голосовать в опросах
    Вы не можете прикреплять файлы к сообщениям
    Вы не можете скачивать файлы