Register  ·  Log in
Forgot password?

  • Скорее всего ты умрёшь / Most Likely to Die (Энтони ДиБлази / Anthony DiBlasi) [2015, США, Ужасы, HDRip] VO (Хихикающий доктор)

    Reply to topic
    Author Message


    Post 05-Jun-2016 00:34



    Скорее всего ты умрёшь / Most Likely to Die
    Страна: США
    Жанр: Ужасы
    Год выпуска: 2015
    Продолжительность: 01:20:47
    Перевод: Одноголосый закадровый Хихикающий доктор
    Cубтитры: нет
    Режиссер: Энтони ДиБлази / Anthony DiBlasi
    В ролях: Хизер Моррис Райан Дум Тесс Кристиансен Чад Кохрэн Джейк Бьюзи John Doe Марио Лавандейра Марсия Миллер Татум Миранда Джонни Раме
    Описание: 9 друзей, 2 дня, 1 убийца. Группа бывших одноклассников собираются на встречу в одном из своих домов, чтоб отпраздновать 10 лет с окончания школы и один за другим начинают умирать в жестоких мучения.
    Качество видео: HDRip (исходник неизвестен)
    Формат видео: AVI
    Видео: 640x272 (2.35:1), 23.976 fps, XviD MPEG-4 ~1072 kbps avg, 0.26 bit/pixel
    Аудио: 44.100 kHz, MPEG Layer 3, 2 ch, ~192.00 kbps avg


    Complete name : E:\Zona Downloads\Most.Likely.To.Die.2015..avi
    Format : AVI
    Format/Info : Audio Video Interleave
    File size : 736 MiB
    Duration : 1h 20mn
    Overall bit rate : 1 274 Kbps
    ID : 0
    Format : MPEG-4 Visual
    Format profile : Advanced Simple@L5
    Format settings, BVOP : 2
    Format settings, QPel : No
    Format settings, GMC : No warppoints
    Format settings, Matrix : Default (H.263)
    Codec ID : XVID
    Codec ID/Hint : XviD
    Duration : 1h 20mn
    Bit rate : 1 072 Kbps
    Width : 640 pixels
    Height : 272 pixels
    Display aspect ratio : 2.35:1
    Frame rate : 23.976 fps
    Color space : YUV
    Chroma subsampling : 4:2:0
    Bit depth : 8 bits
    Scan type : Progressive
    Compression mode : Lossy
    Bits/(Pixel*Frame) : 0.257
    Stream size : 620 MiB (84%)
    Writing library : XviD 65
    ID : 1
    Format : MPEG Audio
    Format version : Version 1
    Format profile : Layer 3
    Codec ID : 55
    Codec ID/Hint : MP3
    Duration : 1h 20mn
    Bit rate mode : Constant
    Bit rate : 192 Kbps
    Channel(s) : 2 channels
    Sampling rate : 44.1 KHz
    Compression mode : Lossy
    Stream size : 111 MiB (15%)
    Alignment : Split accross interleaves
    Interleave, duration : 42 ms (1.00 video frame)
    Interleave, preload duration : 500 ms

    Скриншот c названием фильма


    Download .torrent

    Download free and at maximum speed!

    How to Download? · What is a torrent? · Ratings and Limitations

    The site does not extend and does not store electronic(digital) versions of products, and only gives access to a reference catalogue created by users on torrent-files which contain only lists of the hash-sums, the earnest entreaty, with complaints(abuse) to access directly to the user. Files for an exchange on tracker are given by users of a site, and the administration does not bear the responsibility for their maintenance. The request to not fill in the files protected by copyrights, and also files of the illegal maintenance!

    [Profile] [PM]
    Display posts from previous:    
    Reply to topic

    The time now is: Today 10:07

    All times are GMT + 3 Hours

    You cannot post new topics in this forum
    You cannot reply to topics in this forum
    You cannot edit your posts in this forum
    You cannot delete your posts in this forum
    You cannot vote in polls in this forum
    You cannot attach files in this forum
    You cannot download files in this forum