BitTorrentTracker PerecTracker.org
BitTorrentTracker PerecTracker.org
    
Регистрация  ·  Вход
 
 · 
Забыли пароль?

  • Ватиканские записи / The Vatican Tapes (Марк Невелдайн / Mark Neveldine) [2015, США, фантастика, ужасы, мистика, HDRip] Dub (iTunes)

    Ответить на тему
     
    Автор Сообщение

    Light

    Создавать темы 04-Июн-2016 23:34

           

    [Цитировать]

    Ватиканские записи / The Vatican Tapes
    Страна: США
    Жанр: Фантастика, ужасы, мистика
    Год выпуска: 2015
    Продолжительность: 01:30:52
    Перевод: Профессиональный (дублированный) iTunes
    Cубтитры: отсутствуют
    Оригинальная аудиодорожка: нет
    Режиссёр: Марк Невелдайн / Mark Neveldine
    В ролях: Джимон Хонсу, Майкл Пенья, Питер Андерссон, Оливия Дадли, Кэтлин Робертсон, Дагрей Скотт, Джон Патрик Амедори, Майкл Паре, Кэс Анвар, Бруно Ганн, Ноэми Гонсалез, Алексей Воробьёв, Алекс Коррадо, Джарвис Джордж, и др.
    Описание: Анжела Холмс, обычная молодая симпатичная и привлекательная женщина, однажды сильно поранила палец кухонным ножом, через короткое время, в общественно-пассажирском транспорте, в рану попадает инфекция... После этого у Анжелы изменяется поведение, она начинает оказывать необъяснимые устрашающие воздействия на всех, кто пытаются к ней приближаться... Местный священник, отец Лозано, понаблюдав за Анжелой пришёл к выводу, что всё это происки нечистой силы, вместе с инфекцией вселившейся в Анжелу... Он обращается за помощью в Ватикан. Ватикан откомандировывает ему в помощь викария Имани и кардинала Бруни, совместными усилиями они предпринимают попытку изгнать нечистую силу. Однако, процедура по изгнанию нечистой силы пошла совсем не по плану...

    Качество видео: HDRip
    Формат видео: AVI
    Video: XviD 50 MPEG-4, 720x400 (16:9) 23.976 fps, ~1952 kbps avg, 0.283 bit/pixel
    Аudio: MP-3 Stereo, CBR 224 kbps 2 ch, 48.0 KHz

    MediaInfo

    ОбщееПолное имя : S:\The_Vatican_Tapes_2015_HDRip_[perectracker.org].aviФормат : AVIФормат/Информация : Audio Video InterleaveРазмер файла : 1,39 ГбайтПродолжительность : 1 ч. 30 м.Общий поток : 2185 Кбит/секРежиссёр : networkЖанр : Фантастика, ужасы, мистикаПрограмма кодирования : VirtualDubModRus 1.5.10.2 (build 2542/release)Формат оригинала/Имя : Фильмы 2011-2015Правообладатель : networkПримечание : 4 июня 2016 г.
    ВидеоИдентификатор : 0Формат : MPEG-4 VisualПрофиль формата : Advanced Simple@L5Параметр BVOP формата : 2Параметр QPel формата : НетПараметр GMC формата : Без точки переходаПараметр матрицы формата : Default (MPEG)Идентификатор кодека : DX50Идентификатор кодека/Подсказка : DivX 5Продолжительность : 1 ч. 30 м.Битрейт : 1952 Кбит/секШирина : 720 пикселейВысота : 400 пикселейСоотношение сторон : 16:9Частота кадров : 23,976 кадра/секЦветовое пространство : YUVСубдискретизация насыщенности : 4:2:0Битовая глубина : 8 битТип развёртки : ПрогрессивнаяМетод сжатия : С потерямиБит/(Пиксели*Кадры) : 0.283Размер потока : 1,24 Гбайт (89%)Библиотека кодирования : XviD 1.2.1 (UTC 2008-12-04)
    АудиоИдентификатор : 1Формат : MPEG AudioВерсия формата : Version 1Профиль формата : Layer 3Режим : Joint stereoРасширение режима : MS StereoИдентификатор кодека : 55Идентификатор кодека/Подсказка : MP3Продолжительность : 1 ч. 30 м.Вид битрейта : ПостоянныйБитрейт : 224 Кбит/секКаналы : 2 каналаЧастота : 48,0 КГцМетод сжатия : С потерямиРазмер потока : 146 Мбайт (10%)Выравнивание : Соединение по промежуткамПродолжительность промежутка : 42 мс. (1,00 видеокадр)Время предзагрузки промежутка : 504 мс.Библиотека кодирования : LAME3.99Настройки программы : -m j -V 4 -q 3 -lowpass 19.4 -b 224

    Скриншот c названием фильма

    Скриншоты

    Время раздачи - по возможности.
    Скачать .torrent

    Скачать торрент-файл бесплатно и на максимальной скорости!

    Как скачивать? · Что такое торрент? · Рейтинг и ограничения

    !ВНИМАНИЕ!
    Сайт не распространяет и не хранит электронные версии произведений, а занимается лишь лишь предоставлением доступа к создаваемому пользователями каталогу ссылок на торрент-файлы, которые содержат только списки хеш-сумм, убедительная просьба с жалобами обращаться напрямую к пользователю. Файлы для обмена на трекере предоставлены пользователями сайта, и администрация не несёт ответственности за их содержание. Просьба не заливать файлы, защищенные авторскими правами, а также файлы нелегального содержания!


    _________________
    [Профиль] [ЛС]
    Показать сообщения:    
    Ответить на тему

    Текущее время: Сегодня, в 18:30

    Часовой пояс: GMT + 2



    Вы не можете начинать темы
    Вы не можете отвечать на сообщения
    Вы не можете редактировать свои сообщения
    Вы не можете удалять свои сообщения
    Вы не можете голосовать в опросах
    Вы не можете прикреплять файлы к сообщениям
    Вы не можете скачивать файлы