BitTorrentTracker PerecTracker.org
BitTorrentTracker PerecTracker.org
    
Регистрация  ·  Вход
 
 · 
Забыли пароль?

  • Степные волки / Серии: 1-24 из 24 (Евгений Сологалов, Дмитрий Матов) [2014, Драма, криминал, HDTVRip]

    Ответить на тему
     
    Автор Сообщение

    rechyn

    Создавать темы 04-Июн-2016 20:44

           

    [Цитировать]

    Степные волкиГод выпуска: 2014
    Производство: Россия, "Форвард-фильм"
    Жанр: Драма, криминал
    Продолжительность: 00:45:00
    Субтитры: нет
    Режиссер: Евгений Сологалов, Дмитрий Матов
    В ролях: Юрий Чурсин, Михаил Гаврилов (II), Борис Миронов, Татьяна Лютаева, Константин Глушков, Олеся Фаттахова, Виктор Соловьёв, Антон Ескин, Георгий Громов, Алеса Качер, Николай Бутенин, Евгений Кравченко, Евгений Михеев, Александра Богданова (III), Павел Бессонов, Денис Кузнецов, Алексей Долгушин, Геннадий Матвеев, Бесо Гатаев, Тимур Курбангалеев, Максим Деричев, Семён Литвинов, Юрий Гаркави, Юрий Скулябин
    Описание: Молодой следователь Андрей Дымов (Михаил Гаврилов) отправляется в командировку в небольшой город Степные Курганы, в котором он намерен отыскать своего пропавшего друга и коллегу. Вместе с Дымовым едет его жена Катерина (Олеся Фаттахова). В городе заправляет банда «Степные волки», которой руководит семейный клан Волковых. Чтобы продвинуться в расследовании, Андрею приходится считаться с правилами игры бандитов и идти на сомнительные компромиссы. И только Дымов собирается дать бой «волкам», как вдруг на него обрушивается новый удар судьбы. Его жена влюбляется в наследника семьи Ивана Волкова...
    Релиз группа
    Все раздачи сериала
    Сэмпл
    Качество: HDTVRip
    Формат: AVI
    Видео кодек: XviD
    Аудио кодек: AC3
    Видео: 720x400 (1.80:1), 25 fps, XviD build 73 ~1507 kbps avg, 0.22 bit/pixel
    Аудио: 48 kHz, AC3 Dolby Digital, 2/0 (L,R) ch, ~192.00 kbps avg

    MI

    General
    Complete name : X:\раздачи\Stepnyje.volki.2015.HDTVRip.Files-x.Stepnyje.volki.2015.HDTVRip.Files-x.avi
    Format : AVI
    Format/Info : Audio Video Interleave
    File size : 550 MiB
    Duration : 45mn 55s
    Overall bit rate : 1 673 Kbps
    Writing application : VirtualDubModRus 1.5.10.2 (build 2542/release)
    Writing library : VirtualDubMod build 2542/release
    Video
    ID : 0
    Format : MPEG-4 Visual
    Format profile : Advanced Simple@L5
    Format settings, BVOP : 1
    Format settings, QPel : No
    Format settings, GMC : No warppoints
    Format settings, Matrix : Custom
    Codec ID : XVID
    Codec ID/Hint : XviD
    Duration : 45mn 55s
    Bit rate : 1 471 Kbps
    Width : 720 pixels
    Height : 400 pixels
    Display aspect ratio : 16:9
    Frame rate : 25.000 fps
    Color space : YUV
    Chroma subsampling : 4:2:0
    Bit depth : 8 bits
    Scan type : Progressive
    Compression mode : Lossy
    Bits/(Pixel*Frame) : 0.204
    Stream size : 483 MiB (88%)
    Writing library : XviD 73
    Audio
    ID : 1
    Format : AC-3
    Format/Info : Audio Coding 3
    Mode extension : CM (complete main)
    Format settings, Endianness : Big
    Codec ID : 2000
    Duration : 45mn 55s
    Bit rate mode : Constant
    Bit rate : 192 Kbps
    Channel(s) : 2 channels
    Channel positions : Front: L R
    Sampling rate : 48.0 KHz
    Frame rate : 31.250 fps (1536 spf)
    Compression mode : Lossy
    Stream size : 63.1 MiB (11%)
    Alignment : Split accross interleaves
    Interleave, duration : 40 ms (1.00 video frame)
    Interleave, preload duratio : 500 ms

    Скриншоты


    Скачать .torrent

    Скачать торрент-файл бесплатно и на максимальной скорости!

    Как скачивать? · Что такое торрент? · Рейтинг и ограничения

    !ВНИМАНИЕ!
    Сайт не распространяет и не хранит электронные версии произведений, а занимается лишь лишь предоставлением доступа к создаваемому пользователями каталогу ссылок на торрент-файлы, которые содержат только списки хеш-сумм, убедительная просьба с жалобами обращаться напрямую к пользователю. Файлы для обмена на трекере предоставлены пользователями сайта, и администрация не несёт ответственности за их содержание. Просьба не заливать файлы, защищенные авторскими правами, а также файлы нелегального содержания!


    _________________
    [Профиль] [ЛС]
    Показать сообщения:    
    Ответить на тему

    Текущее время: Сегодня, в 22:22

    Часовой пояс: GMT + 2



    Вы не можете начинать темы
    Вы не можете отвечать на сообщения
    Вы не можете редактировать свои сообщения
    Вы не можете удалять свои сообщения
    Вы не можете голосовать в опросах
    Вы не можете прикреплять файлы к сообщениям
    Вы не можете скачивать файлы