BitTorrentTracker PerecTracker.org
BitTorrentTracker PerecTracker.org
    
Регистрация  ·  Вход
 
 · 
Забыли пароль?

  • Сорочинская ярмарка (Николай Экк) [1938, комедия, мистика, музыкальный, экранизация, DVDRip]

    Ответить на тему
     
    Автор Сообщение

    Flirldrerve

    Создавать темы 04-Июн-2016 19:22

           

    [Цитировать]

    Сорочинская ярмарка
    Жанр: комедия, мистика, музыкальный, экранизация
    Год выпуска: 1938
    Продолжительность: 01:23:25

    Режиссёр: Николай Экк
    В ролях: Валентина Ивашёва, Константин Короткевич, Антон Дунайский, Варвара Чайка, Франц Гловацкий, Татьяна Барышева, А. Бизев, Виталий Пережогин, Надежда Михайлова, С. Сельницкая, Александра Кононова, Василий Дашенко, Дмитрий Капка, Андрей Настенко
    Описание: По произведениям Н. В. Гоголя. Весёлый и озорной парубок Грицько встречает на ярмарке в Сорочинцах юную Парасю. С помощью ловкого цыгана, распугавшего всех присутствующих «чёртом в красной свитке», Грицько удаётся преодолеть сопротивление сварливой мачехи Параси и жениться на красавице. Первый украинский цветной фильм. Один из первых советских цветных фильмов, снятых по фактически экспериментальной технологии «Техниколор». Качество оставляет желать лучшего (см. скриншоты): если московские трёхплёночные цветные фильмы в конце ХХ века хотя бы на современной аппаратуре цифровали, то трансферы аналогичных киевских двуцветок делались, скорее всего, путём съёмки на камеру реальной двухплёночной проекции…
    Качество видео: DVDRip
    Формат видео: AVI
    Видео: 640x480 (1.33:1), 25 fps, XviD build 73 ~2206 kbps avg, 0.29 bit/pixel
    Аудио: 48 kHz, AC3 Dolby Digital, 1/0 (C) ch, ~128 kbps

    MediaInfo

    Общее
    Полное имя : H:\Сорочинская.ярмарка.1938.dvdrip_[1.37]_[teko].avi
    Формат : AVI
    Формат/Информация : Audio Video Interleave
    Размер файла : 1,37 Гбайт
    Продолжительность : 1 ч. 23 м.
    Общий поток : 2345 Кбит/сек
    Программа кодирования : VirtualDubMod 1.5.10.3 | www.virtualdub-fr.org || (build 2550/release)
    Библиотека кодирования : VirtualDubMod build 2550/release
    Видео
    Идентификатор : 0
    Формат : MPEG-4 Visual
    Профиль формата : Advanced Simple@L5
    Параметр BVOP формата : 1
    Параметр QPel формата : Нет
    Параметр GMC формата : Без точки перехода
    Параметр матрицы формата : Выборочная
    Идентификатор кодека : XVID
    Идентификатор кодека/Подсказка : XviD
    Продолжительность : 1 ч. 23 м.
    Битрейт : 2207 Кбит/сек
    Ширина : 640 пикселей
    Высота : 480 пикселей
    Соотношение сторон : 4:3
    Частота кадров : 25,000 кадров/сек
    Цветовое пространство : YUV
    Субдискретизация насыщенности : 4:2:0
    Битовая глубина : 8 бит
    Тип развёртки : Прогрессивная
    Метод сжатия : С потерями
    Бит/(Пиксели*Кадры) : 0.287
    Размер потока : 1,29 Гбайт (94%)
    Библиотека кодирования : XviD 73
    Аудио
    Идентификатор : 1
    Формат : AC-3
    Формат/Информация : Audio Coding 3
    Расширение режима : CM (complete main)
    Параметр Endianness формата : Big
    Идентификатор кодека : 2000
    Продолжительность : 1 ч. 23 м.
    Вид битрейта : Постоянный
    Битрейт : 128 Кбит/сек
    Каналы : 1 канал
    Расположение каналов : Front: C
    Частота : 48,0 КГц
    Битовая глубина : 16 бит
    Метод сжатия : С потерями
    Размер потока : 76,4 Мбайт (5%)
    Выравнивание : Разделение по промежуткам
    Продолжительность промежутка : 40 мс. (1,00 видеокадр)
    Время предзагрузки промежутка : 500 мс.

    Скриншоты

    Релиз группы:

    -
    -
    Скачать .torrent

    Скачать торрент-файл бесплатно и на максимальной скорости!

    Как скачивать? · Что такое торрент? · Рейтинг и ограничения

    !ВНИМАНИЕ!
    Сайт не распространяет и не хранит электронные версии произведений, а занимается лишь лишь предоставлением доступа к создаваемому пользователями каталогу ссылок на торрент-файлы, которые содержат только списки хеш-сумм, убедительная просьба с жалобами обращаться напрямую к пользователю. Файлы для обмена на трекере предоставлены пользователями сайта, и администрация не несёт ответственности за их содержание. Просьба не заливать файлы, защищенные авторскими правами, а также файлы нелегального содержания!


    _________________
    [Профиль] [ЛС]
    Показать сообщения:    
    Ответить на тему

    Текущее время: Сегодня, в 07:53

    Часовой пояс: GMT + 2



    Вы не можете начинать темы
    Вы не можете отвечать на сообщения
    Вы не можете редактировать свои сообщения
    Вы не можете удалять свои сообщения
    Вы не можете голосовать в опросах
    Вы не можете прикреплять файлы к сообщениям
    Вы не можете скачивать файлы