BitTorrentTracker PerecTracker.org
BitTorrentTracker PerecTracker.org
    
Регистрация  ·  Вход
 
 · 
Забыли пароль?

  • Никогда не сдавайся 3 / Never Back Down: No Surrender (Майкл Джей Уайт / Michael Jai White) [2016, США, боевик, DVDRip] DVO

    Ответить на тему
     
    Автор Сообщение

    rechyn

    Создавать темы 04-Июн-2016 19:22

           

    [Цитировать]

    Никогда не сдавайся 3 / Never Back Down: No Surrender
    Страна: США
    Жанр: боевик
    Год выпуска: 2016
    Продолжительность: 01:41:24
    Перевод: Любительский (двухголосый закадровый)
    Cубтитры: нет
    Режиссер: Майкл Джей Уайт / Michael Jai White
    В ролях: Майкл Джей Уайт, Джош Барнетт, Джиллиан Уайт, Йанин Висмитананда, Эсай Моралес, Стивен Квадрос, Нэйтан Джонс, Брахим Ачаббаке, Рон Смуренбург, Тони Джа
    Описание: Продолжение бойцовской франшизы о состязаниях по смешанным единоборствам и сопутствующих им закулисных страстях. Экс-звезда Кейс Уокер возвращается на ринг за очередной победой, но старой школе в его лице предстоит потягаться с новой школой.
    Сэмпл: http://multi-up.com/1104273
    Качество видео: DVDRip
    Формат видео: AVI
    Видео: Xvid 720x400 23.976fps 1508kbps
    Аудио: Dolby AC3 48000Hz stereo 192kbps

    MediaInfo

    General
    Complete name : C:\HuKorga.He.CgaBaiC9.3.2016.L2.DVDRip.avi
    Format : AVI
    Format/Info : Audio Video Interleave
    File size : 1.37 GiB
    Duration : 1h 41mn
    Overall bit rate : 1 939 Kbps
    Writing application : VirtualDubMod 1.5.10.3 | www.virtualdub-fr.org || (build 2550/release)
    Writing library : VirtualDubMod build 2550/release
    Video
    ID : 0
    Format : MPEG-4 Visual
    Format profile : Simple@L3
    Format settings, BVOP : No
    Format settings, QPel : No
    Format settings, GMC : No warppoints
    Format settings, Matrix : Default (H.263)
    Codec ID : XVID
    Codec ID/Hint : XviD
    Duration : 1h 41mn
    Bit rate : 1 509 Kbps
    Width : 720 pixels
    Height : 400 pixels
    Display aspect ratio : 16:9
    Frame rate : 23.976 fps
    Color space : YUV
    Chroma subsampling : 4:2:0
    Bit depth : 8 bits
    Scan type : Progressive
    Compression mode : Lossy
    Bits/(Pixel*Frame) : 0.219
    Stream size : 1.07 GiB (78%)
    Writing library : XviD 1.1.2 (UTC 2006-11-01)
    Audio
    ID : 1
    Format : AC-3
    Format/Info : Audio Coding 3
    Mode extension : CM (complete main)
    Codec ID : 2000
    Duration : 1h 41mn
    Bit rate mode : Constant
    Bit rate : 192 Kbps
    Channel(s) : 2 channels
    Channel positions : Front: L R
    Sampling rate : 48.0 KHz
    Bit depth : 16 bits
    Compression mode : Lossy
    Stream size : 139 MiB (10%)
    Alignment : Split accross interleaves
    Interleave, duration : 42 ms (1.00 video frame)
    Interleave, preload duration : 500 ms

    Скриншот c названием фильма

    Скриншоты

    Скачать .torrent

    Скачать торрент-файл бесплатно и на максимальной скорости!

    Как скачивать? · Что такое торрент? · Рейтинг и ограничения

    !ВНИМАНИЕ!
    Сайт не распространяет и не хранит электронные версии произведений, а занимается лишь лишь предоставлением доступа к создаваемому пользователями каталогу ссылок на торрент-файлы, которые содержат только списки хеш-сумм, убедительная просьба с жалобами обращаться напрямую к пользователю. Файлы для обмена на трекере предоставлены пользователями сайта, и администрация не несёт ответственности за их содержание. Просьба не заливать файлы, защищенные авторскими правами, а также файлы нелегального содержания!


    _________________
    [Профиль] [ЛС]
    Показать сообщения:    
    Ответить на тему

    Текущее время: Сегодня, в 04:13

    Часовой пояс: GMT + 2



    Вы не можете начинать темы
    Вы не можете отвечать на сообщения
    Вы не можете редактировать свои сообщения
    Вы не можете удалять свои сообщения
    Вы не можете голосовать в опросах
    Вы не можете прикреплять файлы к сообщениям
    Вы не можете скачивать файлы