Register  ·  Log in
Forgot password?

  • Никогда не сдавайся 3 / Never Back Down: No Surrender (Майкл Джей Уайт / Michael Jai White) [2016, США, боевик, DVDRip] DVO

    Reply to topic
    Author Message


    Post 04-Jun-2016 20:22



    Никогда не сдавайся 3 / Never Back Down: No Surrender
    Страна: США
    Жанр: боевик
    Год выпуска: 2016
    Продолжительность: 01:41:24
    Перевод: Любительский (двухголосый закадровый)
    Cубтитры: нет
    Режиссер: Майкл Джей Уайт / Michael Jai White
    В ролях: Майкл Джей Уайт, Джош Барнетт, Джиллиан Уайт, Йанин Висмитананда, Эсай Моралес, Стивен Квадрос, Нэйтан Джонс, Брахим Ачаббаке, Рон Смуренбург, Тони Джа
    Описание: Продолжение бойцовской франшизы о состязаниях по смешанным единоборствам и сопутствующих им закулисных страстях. Экс-звезда Кейс Уокер возвращается на ринг за очередной победой, но старой школе в его лице предстоит потягаться с новой школой.
    Качество видео: DVDRip
    Формат видео: AVI
    Видео: Xvid 720x400 23.976fps 1508kbps
    Аудио: Dolby AC3 48000Hz stereo 192kbps


    Complete name : C:\HuKorga.He.CgaBaiC9.3.2016.L2.DVDRip.avi
    Format : AVI
    Format/Info : Audio Video Interleave
    File size : 1.37 GiB
    Duration : 1h 41mn
    Overall bit rate : 1 939 Kbps
    Writing application : VirtualDubMod | || (build 2550/release)
    Writing library : VirtualDubMod build 2550/release
    ID : 0
    Format : MPEG-4 Visual
    Format profile : Simple@L3
    Format settings, BVOP : No
    Format settings, QPel : No
    Format settings, GMC : No warppoints
    Format settings, Matrix : Default (H.263)
    Codec ID : XVID
    Codec ID/Hint : XviD
    Duration : 1h 41mn
    Bit rate : 1 509 Kbps
    Width : 720 pixels
    Height : 400 pixels
    Display aspect ratio : 16:9
    Frame rate : 23.976 fps
    Color space : YUV
    Chroma subsampling : 4:2:0
    Bit depth : 8 bits
    Scan type : Progressive
    Compression mode : Lossy
    Bits/(Pixel*Frame) : 0.219
    Stream size : 1.07 GiB (78%)
    Writing library : XviD 1.1.2 (UTC 2006-11-01)
    ID : 1
    Format : AC-3
    Format/Info : Audio Coding 3
    Mode extension : CM (complete main)
    Codec ID : 2000
    Duration : 1h 41mn
    Bit rate mode : Constant
    Bit rate : 192 Kbps
    Channel(s) : 2 channels
    Channel positions : Front: L R
    Sampling rate : 48.0 KHz
    Bit depth : 16 bits
    Compression mode : Lossy
    Stream size : 139 MiB (10%)
    Alignment : Split accross interleaves
    Interleave, duration : 42 ms (1.00 video frame)
    Interleave, preload duration : 500 ms

    Скриншот c названием фильма


    Download .torrent

    Download free and at maximum speed!

    How to Download? · What is a torrent? · Ratings and Limitations

    The site does not extend and does not store electronic(digital) versions of products, and only gives access to a reference catalogue created by users on torrent-files which contain only lists of the hash-sums, the earnest entreaty, with complaints(abuse) to access directly to the user. Files for an exchange on tracker are given by users of a site, and the administration does not bear the responsibility for their maintenance. The request to not fill in the files protected by copyrights, and also files of the illegal maintenance!

    [Profile] [PM]
    Display posts from previous:    
    Reply to topic

    The time now is: Today 22:25

    All times are GMT + 3 Hours

    You cannot post new topics in this forum
    You cannot reply to topics in this forum
    You cannot edit your posts in this forum
    You cannot delete your posts in this forum
    You cannot vote in polls in this forum
    You cannot attach files in this forum
    You cannot download files in this forum