BitTorrentTracker PerecTracker.org
BitTorrentTracker PerecTracker.org
    
Регистрация  ·  Вход
 
 · 
Забыли пароль?

  • Тарелка / The Dish (Роб Ситч / Rob Sitch) [2000, Австралия, драма, комедия, WEB-DL 720p] DVO + Sub Eng + Original Eng

    Ответить на тему
     
    Автор Сообщение

    Light

    Создавать темы 04-Июн-2016 15:10

           

    [Цитировать]

    Тарелка / The Dish
    -Страна: Австралия
    Жанр: драма, комедия
    Год выпуска: 2000
    Продолжительность: 01:41:06-Перевод: Профессиональный (двухголосый закадровый)
    Cубтитры: английские
    Оригинальная аудиодорожка: английский-Режиссер: Роб Ситч / Rob Sitch-В ролях: Сэм Нилл, Кевин Хэррингтон, Том Лонг, Пэтрик Уорбертон, Женевьев Муй, Тэйлер Кэйн, Билли Браун, Рой Биллинг, Эндрю С. Джилберт-Описание:
    До осуществления мечты человечества, высадки на Луне, оставались считанные часы. В самый последний момент выяснилось, что для контроля за посадкой лучше всего подходит радиотелескоп, расположенный в австралийской глубинке. Для Клиффа Бакстона, возглавляющего бригаду сотрудников телескопа, стало полной неожиданностью огромное количество важных персон, свалившихся на него, как снег на голову. Выкручиваться пришлось самозабвенно и гениально…-Сэмпл: Скачать-Тип релиза: WEB-DL 720p
    Контейнер: MKV-Видео: 1 278x720 (16:9); 3 950 Kbps; 23.976 fps; 0.179 bpp
    Аудио 1: Russian; AC3; 48.0 KHz; 2ch; 192 Kbps DVO
    Аудио 2: English; AC3; 48.0 KHz; 6ch; 384 Kbps
    Формат субтитров: softsub (SRT)

    MediaInfo

    Format : Matroska
    Format version : Version 4 / Version 2
    File size : 3.26 GiB
    Duration : 1h 41mn
    Overall bit rate : 4 617 Kbps
    Encoded date : UTC 2016-06-02 07:20:44
    Writing application : mkvmerge v8.3.0 ('Over the Horizon') 64bit
    Writing library : libebml v1.3.1 + libmatroska v1.4.2
    Attachements : poster.jpg
    DURATION : 01:35:54.845000000
    NUMBER_OF_FRAMES : 1556
    NUMBER_OF_BYTES : 51115
    _STATISTICS_WRITING_APP : mkvmerge v8.3.0 ('Over the Horizon') 64bit
    _STATISTICS_WRITING_DATE_UT : 2016-06-02 07:20:44
    _STATISTICS_TAGS : BPS DURATION NUMBER_OF_FRAMES NUMBER_OF_BYTES
    Video
    ID : 1
    Format : AVC
    Format/Info : Advanced Video Codec
    Format profile : High@L3.1
    Format settings, CABAC : No
    Format settings, ReFrames : 2 frames
    Codec ID : V_MPEG4/ISO/AVC
    Duration : 1h 41mn
    Bit rate : 3 950 Kbps
    Width : 1 278 pixels
    Height : 720 pixels
    Display aspect ratio : 16:9
    Frame rate mode : Constant
    Frame rate : 23.976 fps
    Color space : YUV
    Chroma subsampling : 4:2:0
    Bit depth : 8 bits
    Scan type : Progressive
    Bits/(Pixel*Frame) : 0.179
    Stream size : 2.79 GiB (86%)
    Language : English
    Default : Yes
    Forced : No
    Color range : Limited
    Color primaries : BT.709
    Transfer characteristics : BT.709
    Matrix coefficients : BT.709
    Audio #1
    ID : 2
    Format : AC-3
    Format/Info : Audio Coding 3
    Mode extension : CM (complete main)
    Format settings, Endianness : Big
    Codec ID : A_AC3
    Duration : 1h 41mn
    Bit rate mode : Constant
    Bit rate : 192 Kbps
    Channel(s) : 2 channels
    Channel positions : Front: L R
    Sampling rate : 48.0 KHz
    Compression mode : Lossy
    Stream size : 139 MiB (4%)
    Title : DVO
    Language : Russian
    Default : Yes
    Forced : No
    Audio #2
    ID : 3
    Format : AC-3
    Format/Info : Audio Coding 3
    Mode extension : CM (complete main)
    Format settings, Endianness : Big
    Codec ID : A_AC3
    Duration : 1h 41mn
    Bit rate mode : Constant
    Bit rate : 384 Kbps
    Channel(s) : 6 channels
    Channel positions : Front: L C R, Side: L R, LFE
    Sampling rate : 48.0 KHz
    Compression mode : Lossy
    Stream size : 278 MiB (8%)
    Language : English
    Default : No
    Forced : No
    Text
    ID : 4
    Format : UTF-8
    Codec ID : S_TEXT/UTF8
    Codec ID/Info : UTF-8 Plain Text
    Language : English
    Default : No
    Forced : No
    Menu
    00:00:00.000 : en:Lunar Age Montage
    00:04:16.000 : en:The Dish's Crew
    00:08:11.000 : en:Everyone's Work
    00:11:38.000 : en:Town Abuzz
    00:14:08.000 : en:Liftoff Of Apollo 11
    00:18:57.000 : en:Explaining To Janine
    00:23:43.000 : en:Responsible Parties
    00:27:35.000 : en:Respect And Authorization
    00:30:17.000 : en:Part Of Something Big
    00:34:53.000 : en:National Anthem
    00:36:52.000 : en:Lights Out
    00:39:58.000 : en:Houston,We Have No Problem
    00:42:56.000 : en:Commitment
    00:47:36.000 : en:Copy That
    00:52:43.000 : en:Back On Line
    00:56:24.000 : en:Come Together
    01:01:43.000 : en:It's A Date
    01:03:57.000 : en:Lunch With The Mcintyres
    01:07:17.000 : en:Exciting Events
    01:11:42.000 : en:The Eagle Has Landed
    01:15:25.000 : en:Dangerous Winds
    01:19:12.000 : en:Time To Dare
    01:23:19.000 : en:Into Position
    01:25:20.000 : en:One Giant Leap
    01:30:08.000 : en:Here's To Parkes
    01:33:00.000 : en:Quite A Buzz
    01:35:07.000 : en:Code And End Credits

    HDTV vs WEB-DL




    Скриншоты

    Скачать .torrent

    Скачать торрент-файл бесплатно и на максимальной скорости!

    Как скачивать? · Что такое торрент? · Рейтинг и ограничения

    !ВНИМАНИЕ!
    Сайт не распространяет и не хранит электронные версии произведений, а занимается лишь лишь предоставлением доступа к создаваемому пользователями каталогу ссылок на торрент-файлы, которые содержат только списки хеш-сумм, убедительная просьба с жалобами обращаться напрямую к пользователю. Файлы для обмена на трекере предоставлены пользователями сайта, и администрация не несёт ответственности за их содержание. Просьба не заливать файлы, защищенные авторскими правами, а также файлы нелегального содержания!


    _________________
    [Профиль] [ЛС]
    Показать сообщения:    
    Ответить на тему

    Текущее время: Сегодня, в 06:13

    Часовой пояс: GMT + 2



    Вы не можете начинать темы
    Вы не можете отвечать на сообщения
    Вы не можете редактировать свои сообщения
    Вы не можете удалять свои сообщения
    Вы не можете голосовать в опросах
    Вы не можете прикреплять файлы к сообщениям
    Вы не можете скачивать файлы