BitTorrentTracker PerecTracker.org
BitTorrentTracker PerecTracker.org
    
Регистрация  ·  Вход
 
 · 
Забыли пароль?

  • Частное пионерское 2 (Александр Карпиловский) [2015, Детский, драма, приключения, экранизация, WEB-DL]

    Ответить на тему
     
    Автор Сообщение

    Flirldrerve

    Создавать темы 04-Июн-2016 02:35

           

    [Цитировать]

    Частное пионерское 2
    Жанр: Детский, драма, приключения, экранизация
    Год выпуска: 2015
    Продолжительность: 01:39:51
    Режиссёр: Александр Карпиловский
    В ролях: Семен Трескунов, Егор Клинаев, Анфиса Вистингаузен, Екатерина Кузнецова, Марианна Шульц, Сергей Баталов, Илья Ермолов, Василий Мищенко, Тимофей Трибунцев, Александра Ртищева
    Описание: Два года спустя. Наши герои выросли. Теперь им 14 лет. Димка, Мишка и Лена едут в пионерский̆ лагерь на море. Вместе с ними любимая собака Савва. В лагере их ждут необыкновенные приключения, сокровища, дуэли, пещеры и многое другое. И, конечно, первая любовь с настоящими шекспировскими страстями.
    Доп. информация: Субтитры - английские, вшитые.
    Сэмпл: http://sendfile.su/1239520
    Качество видео: WEB-DL
    Формат видео: AVI
    Видео: Xvid 720x288 (320:131) 23.976fps 1808kbps
    Аудио: Dolby AC3 48000Hz stereo 256kbps
    P.S.
    Уважаемые друзья!
    Пожалуйста, поддержите режиссера, он начал снимать третью часть фильма, но нужна ваша помощь!
    Помощь тех, кто хотел бы хорошее кино снималось и дальше!
    Не непотребство с алкоголем в каждой второй сценке и идиотскими шутками, чьи создатели теперь входят в комиссию решающую кому и сколько давать денег, а то, что должно идти рядом с фильмами времен СССР, максимально к ним приближаясь.
    Петиция режиссера на Change.org: https://www.change.org/p/президенту-российской-федерации-путину-владимиру-владими...сии-от-коррупции
    Пожалуйста, не оставайтесь в стороне! Может быть эта петиция и ничего не решит, но попробовать стоит.
    Министерству культуры перестали быть нужными хорошие фильмы. Они нужны НАМ с вами.

    MediaInfo

    Формат : AVI
    Формат/Информация : Audio Video Interleave
    Профиль формата : OpenDML
    Размер файла : 1,45 Гбайт
    Продолжительность : 1 ч. 39 м.
    Общий поток : 2077 Кбит/сек
    Программа кодирования : XviD4PSP 6.0 / 54.29.105
    Видео
    Идентификатор : 0
    Формат : xvid
    Идентификатор кодека : xvid
    Продолжительность : 1 ч. 39 м.
    Битрейт : 1809 Кбит/сек
    Ширина : 720 пикселей
    Высота : 288 пикселей
    Соотношение сторон : 2,40:1
    Частота кадров : 23,976 кадра/сек
    Тип развёртки : Прогрессивная
    Бит/(Пиксели*Кадры) : 0.364
    Размер потока : 1,26 Гбайт (87%)
    Аудио
    Идентификатор : 1
    Формат : AC-3
    Формат/Информация : Audio Coding 3
    Расширение режима : CM (complete main)
    Параметр Endianness формата : Big
    Идентификатор кодека : 2000
    Продолжительность : 1 ч. 39 м.
    Вид битрейта : Постоянный
    Битрейт : 256 Кбит/сек
    Каналы : 2 канала
    Расположение каналов : Front: L R
    Частота : 48,0 КГц
    Частота кадров : 31,250 кадров/сек (1536 spf)
    Битовая глубина : 16 бит
    Метод сжатия : С потерями
    Размер потока : 183 Мбайт (12%)
    Выравнивание : Соединение по промежуткам
    Продолжительность промежутка : 32 мс. (0,77 видеокадр)

    Скриншот c названием фильма

    Скриншоты

    Скачать .torrent

    Скачать торрент-файл бесплатно и на максимальной скорости!

    Как скачивать? · Что такое торрент? · Рейтинг и ограничения

    !ВНИМАНИЕ!
    Сайт не распространяет и не хранит электронные версии произведений, а занимается лишь лишь предоставлением доступа к создаваемому пользователями каталогу ссылок на торрент-файлы, которые содержат только списки хеш-сумм, убедительная просьба с жалобами обращаться напрямую к пользователю. Файлы для обмена на трекере предоставлены пользователями сайта, и администрация не несёт ответственности за их содержание. Просьба не заливать файлы, защищенные авторскими правами, а также файлы нелегального содержания!


    _________________
    [Профиль] [ЛС]
    Показать сообщения:    
    Ответить на тему

    Текущее время: Сегодня, в 14:14

    Часовой пояс: GMT + 2



    Вы не можете начинать темы
    Вы не можете отвечать на сообщения
    Вы не можете редактировать свои сообщения
    Вы не можете удалять свои сообщения
    Вы не можете голосовать в опросах
    Вы не можете прикреплять файлы к сообщениям
    Вы не можете скачивать файлы