BitTorrentTracker PerecTracker.org
BitTorrentTracker PerecTracker.org
    
Регистрация  ·  Вход
 
 · 
Забыли пароль?

  • Огонь в небе / Fire in the Sky (Роберт Либерман / Robert Lieberman) [1993, США, фантастика, драма, детектив, биография, WEB-DL 720p] 2x DVO (НТВ+, Премьер Видео Фильм) + Original (Eng) + Sub (Rus, Eng)

    Ответить на тему
     
    Автор Сообщение

    Light

    Создавать темы 04-Июн-2016 02:35

           

    [Цитировать]

    Огонь в небе / Fire in the Sky-Год выпуска: 1993
    Страна: США
    Студия: Paramount Pictures
    Жанр: фантастика, драма, детектив, биография
    Продолжительность: 01:49:19
    Перевод:
    • Профессиональный (двухголосый закадровый) НТВ+
    • Профессиональный (двухголосый закадровый) Премьер Видео Фильм |VHS|
    Cубтитры: русские, английские
    Оригинальная аудиодорожка: английский
    -Режиссер: Роберт Либерман / Robert Lieberman-В ролях: Д.Б. Суини, Роберт Патрик, Крэйг Шеффер, Питер Берг, Генри Томас, Брэдли Грегг, Ноубл Уиллингэм, Кэтлин Уилхойт, Джеймс Гарнер, Джорджия Эмелин и другие.-Роли озвучивали:
    • НТВ+: Ирина Савина, Игорь Тарадайкин.
    • Премьер Видео Фильм: Андрей Градов, Ирина Маликова.
    -Описание: Однажды, осенним вечером, группа лесорубов, трудившихся в чаще северо-восточной части штата Аризона, заметила необычайно яркий источник света. Любопытные работяги, среди которых был и Тревис Уолтон, решили рассмотреть странный огонь вблизи. Это и явилось их роковой ошибкой. Тревис Уолтон исчез на глазах своих товарищей. Парализованные ужасом, лесорубы сообщили, что несчастного похитил НЛО. Но этим людям не поверили и начали подозревать их в убийстве. Местные власти объявили официальный розыск Тревиса Уолтона. Полиция совместно с отрядами гражданской обороны день и ночь прочесывала окрестности. Однако попытки найти пропавшего рабочего были тщетны.-РЕЛИЗ ОТ: V.SERIJ2013-

    Спасибо

    • jurasiom - за аудиодорожку НТВ+
    • Fikaloid - за оцифровку VHS-издания Премьер Видео Фильм
    • vasapel - за русские субтитры
    • v.serij2013 (т.е., мне) - за обработку и сведение.
    -Качество: WEB-DL 720p |FGT|
    Формат: MKV
    Видео кодек: H.264
    Аудио кодек: AC3
    Видео: H.264, 1280x544 (2.35:1), 23.976 fps, ~3798 kbps, 0.227 bit/pixel
    Аудио:
    • русская |НТВ+|: AC3, 48 kHz, 6 ch, 448 kbps
      русская |Премьер Видео Фильм|: AC3, 48 kHz, 2 ch, 448 kbps
    • английская |Оригинал|: AC3, 48 kHz, 6 ch, 448 kbps
    -Сэмпл \ Кинопоиск-

    Скриншоты

    Media Info

    General
    Unique ID                      : 249571959331914358897956280810987494412 (0xBBC1CF9C1A083B1CBC7710141F929C0C)
    Complete name                  : E:\Video\HD\Movies (HD)\Fire In The Sky (1993) (WEB-DL 720p).mkv
    Format                         : Matroska
    Format version                 : Version 4 / Version 2
    File size                      : 4.01 GiB
    Duration                       : 1h 49mn
    Overall bit rate               : 5 246 Kbps
    Encoded date                   : UTC 2016-06-02 05:47:42
    Writing application            : mkvmerge v8.8.0 ('Wind at my back') 32bit
    Writing library                : libebml v1.3.3 + libmatroska v1.4.4
    DURATION                       : 01:49:20.416000000
    NUMBER_OF_FRAMES               : 205013
    NUMBER_OF_BYTES                : 367383296
    _STATISTICS_WRITING_APP        : mkvmerge v8.8.0 ('Wind at my back') 32bit
    _STATISTICS_WRITING_DATE_UTC   : 2016-06-02 05:47:42
    _STATISTICS_TAGS               : BPS DURATION NUMBER_OF_FRAMES NUMBER_OF_BYTES
    Video
    ID                             : 1
    Format                         : AVC
    Format/Info                    : Advanced Video Codec
    Format profile                 : Main@L3.1
    Format settings, CABAC         : No
    Format settings, ReFrames      : 2 frames
    Codec ID                       : V_MPEG4/ISO/AVC
    Duration                       : 1h 49mn
    Bit rate                       : 3 798 Kbps
    Width                          : 1 280 pixels
    Height                         : 544 pixels
    Display aspect ratio           : 2.35:1
    Original display aspect ratio  : 2.35:1
    Frame rate mode                : Constant
    Frame rate                     : 23.976 fps
    Color space                    : YUV
    Chroma subsampling             : 4:2:0
    Bit depth                      : 8 bits
    Scan type                      : Progressive
    Bits/(Pixel*Frame)             : 0.227
    Stream size                    : 2.90 GiB (72%)
    Language                       : English
    Default                        : Yes
    Forced                         : No
    Color primaries                : BT.709
    Transfer characteristics       : BT.709
    Matrix coefficients            : BT.709
    Color range                    : Limited
    Audio #1
    ID                             : 2
    Format                         : AC-3
    Format/Info                    : Audio Coding 3
    Mode extension                 : CM (complete main)
    Format settings, Endianness    : Big
    Codec ID                       : A_AC3
    Duration                       : 1h 49mn
    Bit rate mode                  : Constant
    Bit rate                       : 448 Kbps
    Channel(s)                     : 6 channels
    Channel positions              : Front: L C R, Side: L R, LFE
    Sampling rate                  : 48.0 KHz
    Bit depth                      : 16 bits
    Compression mode               : Lossy
    Stream size                    : 350 MiB (9%)
    Title                          : DVO (НТВ+)
    Language                       : Russian
    Default                        : Yes
    Forced                         : No
    Audio #2
    ID                             : 3
    Format                         : AC-3
    Format/Info                    : Audio Coding 3
    Mode extension                 : CM (complete main)
    Format settings, Endianness    : Big
    Codec ID                       : A_AC3
    Duration                       : 1h 49mn
    Bit rate mode                  : Constant
    Bit rate                       : 448 Kbps
    Channel(s)                     : 2 channels
    Channel positions              : Front: L R
    Sampling rate                  : 48.0 KHz
    Bit depth                      : 16 bits
    Compression mode               : Lossy
    Stream size                    : 350 MiB (9%)
    Title                          : DVO (Премьер Видео Фильм)
    Language                       : Russian
    Default                        : No
    Forced                         : No
    Audio #3
    ID                             : 4
    Format                         : AC-3
    Format/Info                    : Audio Coding 3
    Mode extension                 : CM (complete main)
    Format settings, Endianness    : Big
    Codec ID                       : A_AC3
    Duration                       : 1h 49mn
    Bit rate mode                  : Constant
    Bit rate                       : 448 Kbps
    Channel(s)                     : 6 channels
    Channel positions              : Front: L C R, Side: L R, LFE
    Sampling rate                  : 48.0 KHz
    Bit depth                      : 16 bits
    Compression mode               : Lossy
    Delay relative to video        : 2ms
    Stream size                    : 350 MiB (9%)
    Title                          : Original
    Language                       : English
    Default                        : No
    Forced                         : No
    Text #1
    ID                             : 5
    Format                         : UTF-8
    Codec ID                       : S_TEXT/UTF8
    Codec ID/Info                  : UTF-8 Plain Text
    Title                          : vasapel
    Language                       : Russian
    Default                        : No
    Forced                         : No
    Text #2
    ID                             : 6
    Format                         : UTF-8
    Codec ID                       : S_TEXT/UTF8
    Codec ID/Info                  : UTF-8 Plain Text
    Title                          : SDH
    Language                       : English
    Default                        : No
    Forced                         : No
    Menu
    00:00:00.000                   : en:Sticking To The Story
    00:07:13.000                   : en:A Clear Record
    00:16:21.000                   : en:Work Day
    00:23:21.000                   : en:Like A Fire
    00:28:56.000                   : en:They Took Him
    00:35:33.000                   : en:Search Party
    00:41:41.000                   : en:What Really Happened
    00:49:49.000                   : en:Find Dallis
    00:54:26.000                   : en:Town Meeting
    00:59:10.000                   : en:Lie Detector Test
    01:05:30.000                   : en:Rescue Call
    01:12:26.000                   : en:Triggering Bad Memories
    01:20:53.000                   : en:A Fish Out Of Water
    01:28:16.000                   : en:Things Get Rough
    01:36:53.000                   : en:Family Man
    01:40:49.000                   : en:Facing The Past
    -
    Скачать .torrent

    Скачать торрент-файл бесплатно и на максимальной скорости!

    Как скачивать? · Что такое торрент? · Рейтинг и ограничения

    !ВНИМАНИЕ!
    Сайт не распространяет и не хранит электронные версии произведений, а занимается лишь лишь предоставлением доступа к создаваемому пользователями каталогу ссылок на торрент-файлы, которые содержат только списки хеш-сумм, убедительная просьба с жалобами обращаться напрямую к пользователю. Файлы для обмена на трекере предоставлены пользователями сайта, и администрация не несёт ответственности за их содержание. Просьба не заливать файлы, защищенные авторскими правами, а также файлы нелегального содержания!


    _________________
    [Профиль] [ЛС]
    Показать сообщения:    
    Ответить на тему

    Текущее время: Сегодня, в 08:11

    Часовой пояс: GMT + 2



    Вы не можете начинать темы
    Вы не можете отвечать на сообщения
    Вы не можете редактировать свои сообщения
    Вы не можете удалять свои сообщения
    Вы не можете голосовать в опросах
    Вы не можете прикреплять файлы к сообщениям
    Вы не можете скачивать файлы