BitTorrentTracker PerecTracker.org
BitTorrentTracker PerecTracker.org
    
Регистрация  ·  Вход
 
 · 
Забыли пароль?

  • Боксер / The Boxer (Джим Шеридан / Jim Sheridan) [1997, США, Ирландия, драма, мелодрама, спорт, WEB-DL 720p] MVO (Первый Канал) + DVO (Премьер Видео Фильм) + Original (Eng) + Sub (Rus, Eng)

    Ответить на тему
     
    Автор Сообщение

    Light

    Создавать темы 04-Июн-2016 02:35

           

    [Цитировать]

    Боксер / The Boxer-Год выпуска: 1997
    Страна: США, Ирландия
    Студия: Universal Pictures
    Жанр: драма, мелодрама, спорт
    Продолжительность: 01:53:32
    Перевод:
    • Профессиональный (многоголосый закадровый) студия «Эй Би Видео» по заказу Первого Канала
    • Профессиональный (двухголосый закадровый) Премьер Видео Фильм |VHS|
    Cубтитры: русские, английские
    Оригинальная аудиодорожка: английский
    -Режиссер: Джим Шеридан / Jim Sheridan-В ролях: Дэниэл Дэй-Льюис, Эмили Уотсон, Брайан Кокс, Кен Стотт, Джерард МакСорли, Кеннет Крэнэм, Дара Доннелли, Фрэнк Кохлан, Шон Кернс, Лоррейн Пилкингтон и другие.-Роли озвучивали:
    • Первый Канал: Александр Гаврилин, Вячеслав Баранов, Олег Куценко, Валерий Сторожик, Наталья Казначеева.
    • Премьер Видео Фильм: Любовь Германова, Игорь Тарадайкин.
    -Описание: После четырнадцати лет, проведенных в тюрьме, боксер Дэнни Флинн возвращается в неспокойный Белфаст к своей давней пассии Мэгги, которая уже стала женой другого заключенного и растит одна сына-тинэйджера.-РЕЛИЗ ОТ: V.SERIJ2013-

    Спасибо

    • edich2, christm - за аудиодорожку Первый Канал
    • Fikaloid - за оцифровку VHS-издания Премьер Видео Фильм
    • v.serij2013 (т.е., мне) - за обработку и сведение.
    -Качество: WEB-DL 720p |FGT|
    Формат: MKV
    Видео кодек: H.264
    Аудио кодек: AC3
    Видео: H.264, 1280x690 (1.85:1), 23.976 fps, ~3940 kbps, 0.186 bit/pixel
    Аудио:
    • русская |Первый Канал|: AC3, 48 kHz, 2 ch, 192 kbps
      русская |Премьер Видео Фильм|: AC3, 48 kHz, 2 ch, 384 kbps
    • английская |Оригинал|: AC3, 48 kHz, 6 ch, 384 kbps
    -Сэмпл \ Кинопоиск-

    Скриншоты

    Media Info

    General
    Unique ID                      : 225174589485293952972343294592010558938 (0xA9670C67E7FDFF2699951BBE51CA1DDA)
    Complete name                  : E:\Video\HD\Movies (HD)\The Boxer (1997) (WEB-DL 720p).mkv
    Format                         : Matroska
    Format version                 : Version 4 / Version 2
    File size                      : 3.96 GiB
    Duration                       : 1h 53mn
    Overall bit rate               : 5 000 Kbps
    Encoded date                   : UTC 2016-06-03 06:54:13
    Writing application            : mkvmerge v8.8.0 ('Wind at my back') 32bit
    Writing library                : libebml v1.3.3 + libmatroska v1.4.4
    DURATION                       : 01:46:34.054000000
    NUMBER_OF_FRAMES               : 1003
    NUMBER_OF_BYTES                : 59512
    _STATISTICS_WRITING_APP        : mkvmerge v8.8.0 ('Wind at my back') 32bit
    _STATISTICS_WRITING_DATE_UTC   : 2016-06-03 06:54:13
    _STATISTICS_TAGS               : BPS DURATION NUMBER_OF_FRAMES NUMBER_OF_BYTES
    Video
    ID                             : 1
    Format                         : AVC
    Format/Info                    : Advanced Video Codec
    Format profile                 : High@L3.1
    Format settings, CABAC         : No
    Format settings, ReFrames      : 2 frames
    Codec ID                       : V_MPEG4/ISO/AVC
    Duration                       : 1h 53mn
    Bit rate                       : 3 940 Kbps
    Width                          : 1 280 pixels
    Height                         : 690 pixels
    Display aspect ratio           : 1.85:1
    Frame rate mode                : Constant
    Frame rate                     : 23.976 fps
    Color space                    : YUV
    Chroma subsampling             : 4:2:0
    Bit depth                      : 8 bits
    Scan type                      : Progressive
    Bits/(Pixel*Frame)             : 0.186
    Stream size                    : 3.12 GiB (79%)
    Language                       : English
    Default                        : Yes
    Forced                         : No
    Color primaries                : BT.709
    Transfer characteristics       : BT.709
    Matrix coefficients            : BT.709
    Color range                    : Limited
    Audio #1
    ID                             : 2
    Format                         : AC-3
    Format/Info                    : Audio Coding 3
    Mode extension                 : CM (complete main)
    Format settings, Endianness    : Big
    Codec ID                       : A_AC3
    Duration                       : 1h 53mn
    Bit rate mode                  : Constant
    Bit rate                       : 192 Kbps
    Channel(s)                     : 2 channels
    Channel positions              : Front: L R
    Sampling rate                  : 48.0 KHz
    Bit depth                      : 16 bits
    Compression mode               : Lossy
    Stream size                    : 156 MiB (4%)
    Title                          : MVO (Первый Канал)
    Language                       : Russian
    Default                        : Yes
    Forced                         : No
    Audio #2
    ID                             : 3
    Format                         : AC-3
    Format/Info                    : Audio Coding 3
    Mode extension                 : CM (complete main)
    Format settings, Endianness    : Big
    Codec ID                       : A_AC3
    Duration                       : 1h 53mn
    Bit rate mode                  : Constant
    Bit rate                       : 384 Kbps
    Channel(s)                     : 2 channels
    Channel positions              : Front: L R
    Sampling rate                  : 48.0 KHz
    Bit depth                      : 16 bits
    Compression mode               : Lossy
    Stream size                    : 312 MiB (8%)
    Title                          : DVO (Премьер Видео Фильм)
    Language                       : Russian
    Default                        : No
    Forced                         : No
    Audio #3
    ID                             : 4
    Format                         : AC-3
    Format/Info                    : Audio Coding 3
    Mode extension                 : CM (complete main)
    Format settings, Endianness    : Big
    Codec ID                       : A_AC3
    Duration                       : 1h 53mn
    Bit rate mode                  : Constant
    Bit rate                       : 384 Kbps
    Channel(s)                     : 6 channels
    Channel positions              : Front: L C R, Side: L R, LFE
    Sampling rate                  : 48.0 KHz
    Bit depth                      : 16 bits
    Compression mode               : Lossy
    Stream size                    : 312 MiB (8%)
    Title                          : Original
    Language                       : English
    Default                        : No
    Forced                         : No
    Text #1
    ID                             : 5
    Format                         : UTF-8
    Codec ID                       : S_TEXT/UTF8
    Codec ID/Info                  : UTF-8 Plain Text
    Title                          : Atrox777
    Language                       : Russian
    Default                        : No
    Forced                         : No
    Text #2
    ID                             : 6
    Format                         : UTF-8
    Codec ID                       : S_TEXT/UTF8
    Codec ID/Info                  : UTF-8 Plain Text
    Title                          : SDH
    Language                       : English
    Default                        : No
    Forced                         : No
    Menu
    00:00:00.000                   : en:Danny Flynn's Out… (Main Titles)
    00:04:45.000                   : en:Mr. Hamill
    00:06:35.000                   : en:Our Prisoners' Wives
    00:09:23.000                   : en:The Best Fighter in Ulster
    00:13:36.000                   : en:A Wee Bit of Truth
    00:17:38.000                   : en:The Scrapper Comes Home
    00:20:41.000                   : en:An Approach to the Community Center
    00:25:16.000                   : en:The Deal
    00:27:45.000                   : en:Peace in Ireland
    00:30:26.000                   : en:Odds and Ends
    00:33:55.000                   : en:Talk to Me, Danny…
    00:39:07.000                   : en:The Non-Sectarian Boxing Club
    00:42:04.000                   : en:The Scrapper's Statement
    00:49:19.000                   : en:Safer than West Belfast
    00:51:40.000                   : en:Community Relations
    00:53:46.000                   : en:The Warning Shot
    00:56:50.000                   : en:A Dangerous Woman
    00:59:50.000                   : en:Be with Me
    01:03:28.000                   : en:Coming Back to Life
    01:08:49.000                   : en:The End of the Peace
    01:12:17.000                   : en:Liam's Fire
    01:14:26.000                   : en:The Consequences
    01:18:53.000                   : en:I Can't Protect Him. . .
    01:20:52.000                   : en:Walk Away, Danny
    01:26:39.000                   : en:Gone to London
    01:29:16.000                   : en:The Isrishman vs. the Nigerian
    01:35:35.000                   : en:You Killed this District. . .
    01:37:15.000                   : en:Another Death in Belfast
    01:38:34.000                   : en:A Dangerous Game
    01:41:57.000                   : en:The Executioners
    01:45:27.000                   : en:We're Going Home. . .
    01:48:00.000                   : en:End Titles
    -
    Скачать .torrent

    Скачать торрент-файл бесплатно и на максимальной скорости!

    Как скачивать? · Что такое торрент? · Рейтинг и ограничения

    !ВНИМАНИЕ!
    Сайт не распространяет и не хранит электронные версии произведений, а занимается лишь лишь предоставлением доступа к создаваемому пользователями каталогу ссылок на торрент-файлы, которые содержат только списки хеш-сумм, убедительная просьба с жалобами обращаться напрямую к пользователю. Файлы для обмена на трекере предоставлены пользователями сайта, и администрация не несёт ответственности за их содержание. Просьба не заливать файлы, защищенные авторскими правами, а также файлы нелегального содержания!


    _________________
    [Профиль] [ЛС]
    Показать сообщения:    
    Ответить на тему

    Текущее время: Сегодня, в 00:29

    Часовой пояс: GMT + 2



    Вы не можете начинать темы
    Вы не можете отвечать на сообщения
    Вы не можете редактировать свои сообщения
    Вы не можете удалять свои сообщения
    Вы не можете голосовать в опросах
    Вы не можете прикреплять файлы к сообщениям
    Вы не можете скачивать файлы