BitTorrentTracker PerecTracker.org
BitTorrentTracker PerecTracker.org
    
Регистрация  ·  Вход
 
 · 
Забыли пароль?

  • Зажигай, ребята / Light It Up (Крэйг Болотин / Craig Bolotin) [1999, США, триллер, драма, WEB-DL 1080p] DVO (Лазер Видео) + Original (Eng) + Sub (Eng)

    Ответить на тему
     
    Автор Сообщение

    Light

    Создавать темы 04-Июн-2016 02:35

           

    [Цитировать]

    Зажигай, ребята / Light It Up-Год выпуска: 1999
    Страна: США
    Студия: Twentieth Century Fox Film Corporation
    Жанр: триллер, драма
    Продолжительность: 01:39:27
    Перевод: Профессиональный (двухголосый закадровый) Лазер Видео |VHS|
    Cубтитры: английские
    Оригинальная аудиодорожка: английский
    -Режиссер: Крэйг Болотин / Craig Bolotin-В ролях: Ашер Рэймонд, Форест Уитакер, Розарио Доусон, Роберт Ричард, Джадд Нельсон, Фредро Старр, Сара Гилберт, Клифтон Коллинз мл., Глинн Тёрмен, Вик Полицос и другие.-Роли озвучивали (Лазер Видео): Ирина Савина, Игорь Тарадайкин.-Описание: Иногда приходится брать в руки пистолет, чтобы тебя услышали. Они не хотят быть героями, они хотят, чтобы их выслушали. Шестеро учеников закрываются в своей школе и берут в заложники полицейского. Они не хотят денег, они просто пытаются привлечь к себе внимание и показать всем, что в таких условиях учиться просто невозможно.-РЕЛИЗ ОТ: V.SERIJ2013-Спасибо Fikaloid за оцифровку VHS-издания Лазер Видео и v.serij2013 (т.е., мне) за обработку и сведение.-Качество: WEB-DL 1080p |FGT|
    Формат: MKV
    Видео кодек: H.264
    Аудио кодек: AC3
    Видео: H.264, 1920x1080 (16:9), 23.976 fps, ~4818 kbps, 0.097 bit/pixel
    Аудио:
    • русская |Лазер Видео|: AC3, 48 kHz, 2 ch, 384 kbps
    • английская |Оригинал|: AC3, 48 kHz, 6 ch, 384 kbps
    -Сэмпл \ Кинопоиск-

    Скриншоты

    Media Info

    General
    Unique ID                      : 191092007406459649585845832356453659473 (0x8FC2FB5F172EFE868717BFCE3C17B351)
    Complete name                  : E:\Video\HD\Movies (HD)\Light It Up (1999) (WEB-DL 1080p).mkv
    Format                         : Matroska
    Format version                 : Version 4 / Version 2
    File size                      : 3.96 GiB
    Duration                       : 1h 39mn
    Overall bit rate               : 5 700 Kbps
    Encoded date                   : UTC 2016-06-03 12:45:06
    Writing application            : mkvmerge v8.8.0 ('Wind at my back') 32bit
    Writing library                : libebml v1.3.3 + libmatroska v1.4.4
    DURATION                       : 01:37:10.662000000
    NUMBER_OF_FRAMES               : 2231
    NUMBER_OF_BYTES                : 60705
    _STATISTICS_WRITING_APP        : mkvmerge v8.8.0 ('Wind at my back') 32bit
    _STATISTICS_WRITING_DATE_UTC   : 2016-06-03 12:45:06
    _STATISTICS_TAGS               : BPS DURATION NUMBER_OF_FRAMES NUMBER_OF_BYTES
    Video
    ID                             : 1
    Format                         : AVC
    Format/Info                    : Advanced Video Codec
    Format profile                 : High@L4.0
    Format settings, CABAC         : Yes
    Format settings, ReFrames      : 4 frames
    Codec ID                       : V_MPEG4/ISO/AVC
    Duration                       : 1h 39mn
    Bit rate                       : 4 819 Kbps
    Width                          : 1 920 pixels
    Height                         : 1 080 pixels
    Display aspect ratio           : 16:9
    Frame rate mode                : Constant
    Frame rate                     : 23.976 fps
    Color space                    : YUV
    Chroma subsampling             : 4:2:0
    Bit depth                      : 8 bits
    Scan type                      : Progressive
    Bits/(Pixel*Frame)             : 0.097
    Stream size                    : 3.35 GiB (85%)
    Language                       : English
    Default                        : Yes
    Forced                         : No
    Color primaries                : BT.709
    Transfer characteristics       : BT.709
    Matrix coefficients            : BT.709
    Color range                    : Limited
    Audio #1
    ID                             : 2
    Format                         : AC-3
    Format/Info                    : Audio Coding 3
    Mode extension                 : CM (complete main)
    Format settings, Endianness    : Big
    Codec ID                       : A_AC3
    Duration                       : 1h 39mn
    Bit rate mode                  : Constant
    Bit rate                       : 384 Kbps
    Channel(s)                     : 2 channels
    Channel positions              : Front: L R
    Sampling rate                  : 48.0 KHz
    Bit depth                      : 16 bits
    Compression mode               : Lossy
    Stream size                    : 273 MiB (7%)
    Title                          : DVO (Лазер Видео)
    Language                       : Russian
    Default                        : Yes
    Forced                         : No
    Audio #2
    ID                             : 3
    Format                         : AC-3
    Format/Info                    : Audio Coding 3
    Mode extension                 : CM (complete main)
    Format settings, Endianness    : Big
    Codec ID                       : A_AC3
    Duration                       : 1h 39mn
    Bit rate mode                  : Constant
    Bit rate                       : 384 Kbps
    Channel(s)                     : 6 channels
    Channel positions              : Front: L C R, Side: L R, LFE
    Sampling rate                  : 48.0 KHz
    Bit depth                      : 16 bits
    Compression mode               : Lossy
    Stream size                    : 273 MiB (7%)
    Title                          : Original
    Language                       : English
    Default                        : No
    Forced                         : No
    Text
    ID                             : 4
    Format                         : UTF-8
    Codec ID                       : S_TEXT/UTF8
    Codec ID/Info                  : UTF-8 Plain Text
    Title                          : SDH
    Language                       : English
    Default                        : No
    Forced                         : No
    Скачать .torrent

    Скачать торрент-файл бесплатно и на максимальной скорости!

    Как скачивать? · Что такое торрент? · Рейтинг и ограничения

    !ВНИМАНИЕ!
    Сайт не распространяет и не хранит электронные версии произведений, а занимается лишь лишь предоставлением доступа к создаваемому пользователями каталогу ссылок на торрент-файлы, которые содержат только списки хеш-сумм, убедительная просьба с жалобами обращаться напрямую к пользователю. Файлы для обмена на трекере предоставлены пользователями сайта, и администрация не несёт ответственности за их содержание. Просьба не заливать файлы, защищенные авторскими правами, а также файлы нелегального содержания!


    _________________
    [Профиль] [ЛС]
    Показать сообщения:    
    Ответить на тему

    Текущее время: Сегодня, в 07:58

    Часовой пояс: GMT + 2



    Вы не можете начинать темы
    Вы не можете отвечать на сообщения
    Вы не можете редактировать свои сообщения
    Вы не можете удалять свои сообщения
    Вы не можете голосовать в опросах
    Вы не можете прикреплять файлы к сообщениям
    Вы не можете скачивать файлы