BitTorrentTracker PerecTracker.org
BitTorrentTracker PerecTracker.org
    
Регистрация  ·  Вход
 
 · 
Забыли пароль?

  • Полицейская тачка / Cop Car (Джон Уоттс / Jon Watts) [2015, США, триллер, криминал, BDRip 1080p] MVO + VO + Sub Rus, Eng, Spa, Fre + Original Eng

    Ответить на тему
     
    Автор Сообщение

    Light

    Создавать темы 03-Июн-2016 16:01

           

    [Цитировать]

    Полицейская тачка / Cop Car
    Страна: США
    Жанр: триллер, криминал
    Год выпуска: 2015
    Продолжительность: 01:27:57
      -Перевод 1: Любительский (многоголосый закадровый) Paradox & Omskbird records
      Перевод 2: Одноголосый закадровый М. Чадов
        -Cубтитры: русские, английские, испанские, французские
        Оригинальная аудиодорожка: английский
          -Режиссер: Джон Уоттс / Jon Watts
            -В ролях: Кевин Бейкон, Джеймс Фридсон-Джексон, Хэйс Уэллфорд, Камрин Менхейм, Ши Уигхэм, Кира Седжвик
            Описание: Два 10-летних мальчишки находят заброшенный полицейский автомобиль и решают присвоить его себе. Обычная детская игра начинает приобретать пугающие черты после того, как шериф небольшого городка отправляется на поиски своей пропавшей машины.
              -Релиз от:
                -Тип релиза: BDRip 1080p
                Контейнер: MKV
                  -Видео: 1920x804 (2.35:1), 23,976 fps, MPEG-4 AVC, ~ 15838 kbps
                    -Аудио : Russian: 48 kHz, DTS, 3/3 (L,C,R,l,c,r) + LFE ch, ~1510.00 kbps avg | Paradox & Omskbird records
                    Аудио : Russian: 48 kHz, DTS, 3/3 (L,C,R,l,c,r) + LFE ch, ~1510.00 kbps avg | М. Чадов
                    Аудио : English: 48 kHz, DTS, 3/3 (L,C,R,l,c,r) + LFE ch, ~1510.00 kbps avg

                    MediaInfo

                    General
                    Полное имя : E:\Cop.Car.1080p.mkv
                    Формат : Matroska
                    Размер файла : 12.5 GiB
                    Продолжительность : 1h 27mn
                    Общий поток : 20.4 Mbps
                    Название фильма : Cop Car (2015) - Release for HDCLUB
                    Дата кодирования : UTC 2016-06-02 11:09:46
                    Программа кодирования : mkvmerge v5.7.0 ('The Whirlwind') built on Jul 8 2012 20:08:51
                    Библиотека кодирования : libebml v1.2.3 + libmatroska v1.3.0
                    Video
                    Идентификатор : 1
                    Формат : AVC
                    Формат/Информация : Advanced Video Codec
                    Профайл формата : High@L4.1
                    Параметры CABAC формата : Yes
                    Параметры ReFrames формата : 5 frames
                    Режим смешивания : Container profile=Unknown@4.1
                    Идентификатор кодека : V_MPEG4/ISO/AVC
                    Продолжительность : 1h 27mn
                    Битрейт : 15.4 Mbps
                    Ширина : 1 920 pixels
                    Высота : 804 pixels
                    Соотношение кадра : 2.35:1
                    Частота кадров : 23.976 fps
                    ColorSpace : YUV
                    ChromaSubsampling : 4:2:0
                    BitDepth/String : 8 bits
                    Тип развёртки : Progressive
                    Бит/(Пиксели*Кадры) : 0.417
                    Размер потока : 9.48 GiB (76%)
                    Библиотека кодирования : x264 core 148 r2597kMod e86f3a1
                    Настройки программы : cabac=1 / ref=5 / deblock=1:-3:-3 / analyse=0x3:0x133 / me=umh / subme=10 / psy=1 / fade_compensate=0.00 / psy_rd=1.00:0.00 / mixed_ref=1 / me_range=32 / chroma_me=1 / trellis=2 / 8x8dct=1 / cqm=0 / deadzone=21,11 / fast_pskip=0 / chroma_qp_offset=-2 / threads=6 / lookahead_threads=1 / sliced_threads=0 / nr=0 / decimate=0 / interlaced=0 / bluray_compat=0 / constrained_intra=0 / fgo=0 / bframes=8 / b_pyramid=2 / b_adapt=2 / b_bias=0 / direct=3 / weightb=1 / open_gop=0 / weightp=2 / keyint=250 / keyint_min=23 / scenecut=40 / intra_refresh=0 / rc=crf / mbtree=0 / crf=18.0000 / qcomp=0.60 / qpmin=0 / qpmax=69 / qpstep=4 / ip_ratio=1.30 / pb_ratio=1.20 / aq=3:0.95
                    Audio #1
                    Идентификатор : 2
                    Формат : DTS
                    Формат/Информация : Digital Theater Systems
                    Идентификатор кодека : A_DTS
                    Продолжительность : 1h 27mn
                    Вид битрейта : Constant
                    Битрейт : 1 510 Kbps
                    Канал(ы) : 6 channels
                    Расположение каналов : Front: L C R, Side: L R, LFE
                    Частота : 48.0 KHz
                    BitDepth/String : 24 bits
                    Размер потока : 950 MiB (7%)
                    Заголовок : |Многоголосый закадровый, Paradox & Omskbird records|
                    Язык : Russian
                    Audio #2
                    Идентификатор : 3
                    Формат : DTS
                    Формат/Информация : Digital Theater Systems
                    Идентификатор кодека : A_DTS
                    Продолжительность : 1h 27mn
                    Вид битрейта : Constant
                    Битрейт : 1 510 Kbps
                    Канал(ы) : 6 channels
                    Расположение каналов : Front: L C R, Side: L R, LFE
                    Частота : 48.0 KHz
                    BitDepth/String : 24 bits
                    Размер потока : 950 MiB (7%)
                    Заголовок : |Одноголосый закадровый, Чадов|
                    Язык : Russian
                    Audio #3
                    Идентификатор : 4
                    Формат : DTS
                    Формат/Информация : Digital Theater Systems
                    Идентификатор кодека : A_DTS
                    Продолжительность : 1h 27mn
                    Вид битрейта : Constant
                    Битрейт : 1 510 Kbps
                    Канал(ы) : 6 channels
                    Расположение каналов : Front: L C R, Side: L R, LFE
                    Частота : 48.0 KHz
                    BitDepth/String : 24 bits
                    Размер потока : 950 MiB (7%)
                    Text #1
                    Идентификатор : 5
                    Формат : UTF-8
                    Идентификатор кодека : S_TEXT/UTF8
                    Идентификатор кодека/Информация : UTF-8 Plain Text
                    Язык : Russian
                    Text #2
                    Идентификатор : 6
                    Формат : UTF-8
                    Идентификатор кодека : S_TEXT/UTF8
                    Идентификатор кодека/Информация : UTF-8 Plain Text
                    Text #3
                    Идентификатор : 7
                    Формат : UTF-8
                    Идентификатор кодека : S_TEXT/UTF8
                    Идентификатор кодека/Информация : UTF-8 Plain Text
                    Язык : Spanish
                    Text #4
                    Идентификатор : 8
                    Формат : UTF-8
                    Идентификатор кодека : S_TEXT/UTF8
                    Идентификатор кодека/Информация : UTF-8 Plain Text
                    Язык : French
                    Text #5
                    Идентификатор : 9
                    Формат : UTF-8
                    Идентификатор кодека : S_TEXT/UTF8
                    Идентификатор кодека/Информация : UTF-8 Plain Text
                    Заголовок : SDH
                    Menu
                    00:00:00.000 : en:00:00:00.000
                    00:05:28.286 : en:00:05:28.286
                    00:10:07.565 : en:00:10:07.565
                    00:14:33.039 : en:00:14:33.039
                    00:20:33.941 : en:00:20:33.941
                    00:23:46.717 : en:00:23:46.717
                    00:27:51.545 : en:00:27:51.545
                    00:30:35.208 : en:00:30:35.208
                    00:34:46.668 : en:00:34:46.668
                    00:40:16.331 : en:00:40:16.331
                    00:43:34.487 : en:00:43:34.487
                    00:48:27.613 : en:00:48:27.613
                    00:52:53.670 : en:00:52:53.670
                    00:56:34.516 : en:00:56:34.516
                    01:00:40.720 : en:01:00:40.720
                    01:05:07.320 : en:01:05:07.320
                    01:09:01.137 : en:01:09:01.137
                    01:15:33.154 : en:01:15:33.154
                    01:19:46.240 : en:01:19:46.240
                    01:23:46.480 : en:01:23:46.480

                    Скриншоты

                    Скачать .torrent

                    Скачать торрент-файл бесплатно и на максимальной скорости!

                    Как скачивать? · Что такое торрент? · Рейтинг и ограничения

                    !ВНИМАНИЕ!
                    Сайт не распространяет и не хранит электронные версии произведений, а занимается лишь лишь предоставлением доступа к создаваемому пользователями каталогу ссылок на торрент-файлы, которые содержат только списки хеш-сумм, убедительная просьба с жалобами обращаться напрямую к пользователю. Файлы для обмена на трекере предоставлены пользователями сайта, и администрация не несёт ответственности за их содержание. Просьба не заливать файлы, защищенные авторскими правами, а также файлы нелегального содержания!


                    _________________
                    [Профиль] [ЛС]
                    Показать сообщения:    
                    Ответить на тему

                    Текущее время: Сегодня, в 16:45

                    Часовой пояс: GMT + 2



                    Вы не можете начинать темы
                    Вы не можете отвечать на сообщения
                    Вы не можете редактировать свои сообщения
                    Вы не можете удалять свои сообщения
                    Вы не можете голосовать в опросах
                    Вы не можете прикреплять файлы к сообщениям
                    Вы не можете скачивать файлы