BitTorrentTracker PerecTracker.org
BitTorrentTracker PerecTracker.org
    
Регистрация  ·  Вход
 
 · 
Забыли пароль?

  • Братья из Гримсби / Grimsby (Луи Летерье / Louis Leterrier) [2016, Великобритания, Австралия, боевик, комедия, BDRip 1080p] Dub (iTunes) + Sub Rus, Eng + Original Eng

    Ответить на тему
     
    Автор Сообщение

    Light

    Создавать темы 03-Июн-2016 16:01

           

    [Цитировать]

    -Братья из Гримсби / Grimsby-Страна: Великобритания, Австралия
    Жанр: Боевик, комедия
    Год выпуска: 2016
    Продолжительность: 1:23:12-Перевод: Профессиональный (дублированный) iTunes
    Cубтитры: русские (полные и форсированные), английские
    Оригинальная аудиодорожка: английский-Режиссер: Луи Летерье / Louis Leterrier
    В ролях: Саша Барон Коэн, Марк Стронг, Ребел Уилсон, Пенелопа Крус, Айла Фишер, Скотт Эдкинс, Иэн МакШейн, Габури Сидибе, Аннабелль Уоллис, Дэвид Хэрвуд, Рикки Томлинсон, Джонни Вегас, Сэм Хэзелдайн, Фредди Краудер, Джон-Джон Локвуд, Шон Томас, Клаудия Эдшид, Лекс Шрэпнел-Описание: Сверхсекретная операция, которую выполняет образцовый спецагент, с треском провалена из-за некстати свалившегося на его голову неадекватного брата — оголтелого футбольного фаната и полного беспредельщика. Теперь герою предстоит спасти свою жизнь и вдобавок планету от нависшей над ней угрозы — практически невыполнимая задача в тандеме с вновь приобретенным родственником.-Сэмпл-Тип релиза: BDRip 1080p
    Контейнер: MKV
    Видео: MPEG-4 AVC Video 11000 kbps 1920 x 800 p / 23,976 fps / High Profile 4.1
    Аудио: Russian / Dolby Digital Audio / 5.1 / 48 kHz / 384 kbps
    Аудио 2: English / DTS Audio 5.1 / 48 kHz / 1509 kbps
    Формат субтитров: softsub (SRT)

    Видеоряд от HDChina

    The.Brothers.Grimsby.2016.1080p.BluRay.x264.DTS-HD.MA.5.1-HDChina
    SOURCE TYPE.....: 1080p AVC DTS-HD MA 5.1ViDEO BiTRATE...: x264 L4.1 High @ 11000 kbpsFRAME RATE......: 23.976 fpsAUDiO1..........: English DTS-HD MA 5.1 @ 2312 kbpsRESOLUTiON......: 1920 x 800SUBTiTLE........: English,English SDHENCODER ........: Medusa @ HDChina
    ----------X264 iNFO------------
    x264 [info]: frame I:1248 Avg QP:15.45 size:188011x264 [info]: frame P:34653 Avg QP:16.92 size: 90112x264 [info]: frame B:83642 Avg QP:17.75 size: 41833x264 [info]: consecutive B-frames: 7.6% 7.3% 10.7% 31.6% 13.4% 20.6% 4.6% 3.5% 0.6%
    -
    -Сравнение с исходником: http://imgbox.com/g/hXUghWNLd3

    MI

    GeneralUnique ID : 244639748932403211097985242911727166271 (0xB80BE6DCBBD42FB2AB0836D848BC233F)Complete name : S:\На хранении\Братья из Гримсби (2016. Grimsby) 1080p.mkvFormat : MatroskaFormat version : Version 4 / Version 2File size : 7.49 GiBDuration : 1h 23mnOverall bit rate : 12.9 MbpsMovie name : Release for RuTrackerEncoded date : UTC 2016-06-02 16:40:18Writing application : mkvmerge v9.0.1 ('Obstacles') 64bitWriting library : libebml v1.3.3 + libmatroska v1.4.4Cover : YesAttachments : cover.jpg
    VideoID : 1Format : AVCFormat/Info : Advanced Video CodecFormat profile : High@L4.1Format settings, CABAC : YesFormat settings, ReFrames : 5 framesCodec ID : V_MPEG4/ISO/AVCDuration : 1h 23mnBit rate : 11.0 MbpsWidth : 1 920 pixelsHeight : 800 pixelsDisplay aspect ratio : 2.40:1Frame rate mode : ConstantFrame rate : 23.976 (24000/1001) fpsColor space : YUVChroma subsampling : 4:2:0Bit depth : 8 bitsScan type : ProgressiveBits/(Pixel*Frame) : 0.299Stream size : 6.39 GiB (85%)Title : The.Brothers.Grimsby.2016.1080p.BluRay.x264.DTS-HD.MA.5.1-HDChinaWriting library : x264 core 148 r2665kMod a01e339Encoding settings : cabac=1 / ref=5 / deblock=1:-3:-3 / analyse=0x3:0x133 / me=umh / subme=11 / psy=1 / fade_compensate=0.00 / psy_rd=0.85:0.00 / mixed_ref=1 / me_range=48 / chroma_me=1 / trellis=2 / 8x8dct=1 / cqm=0 / deadzone=21,11 / fast_pskip=0 / chroma_qp_offset=-2 / threads=24 / lookahead_threads=4 / sliced_threads=0 / nr=0 / decimate=0 / interlaced=0 / bluray_compat=0 / constrained_intra=0 / fgo=0 / bframes=8 / b_pyramid=2 / b_adapt=2 / b_bias=0 / direct=3 / weightb=1 / open_gop=0 / weightp=2 / keyint=240 / keyint_min=24 / scenecut=40 / intra_refresh=0 / rc=2pass / mbtree=0 / bitrate=11000 / ratetol=1.0 / qcomp=0.70 / qpmin=0 / qpmax=69 / qpstep=4 / cplxblur=20.0 / qblur=0.5 / ip_ratio=1.20 / pb_ratio=1.20 / aq=3:0.80Language : EnglishDefault : YesForced : No
    Audio #1ID : 2Format : AC-3Format/Info : Audio Coding 3Mode extension : CM (complete main)Format settings, Endianness : BigCodec ID : A_AC3Duration : 1h 23mnBit rate mode : ConstantBit rate : 384 KbpsChannel(s) : 6 channelsChannel positions : Front: L C R, Side: L R, LFESampling rate : 48.0 KHzFrame rate : 31.250 fps (1536 spf)Compression mode : LossyStream size : 228 MiB (3%)Title : ДубляжLanguage : RussianDefault : YesForced : No
    Audio #2ID : 3Format : DTSFormat/Info : Digital Theater SystemsMode : 16Format settings, Endianness : BigCodec ID : A_DTSDuration : 1h 23mnBit rate mode : ConstantBit rate : 1 509 KbpsChannel(s) : 6 channelsChannel positions : Front: L C R, Side: L R, LFESampling rate : 48.0 KHzFrame rate : 93.750 fps (512 spf)Bit depth : 16 bitsCompression mode : LossyStream size : 897 MiB (12%)Language : EnglishDefault : NoForced : No
    Text #1ID : 4Format : UTF-8Codec ID : S_TEXT/UTF8Codec ID/Info : UTF-8 Plain TextDuration : 1h 15mnBit rate : 3 bpsCount of elements : 42Stream size : 1.91 KiB (0%)Title : forcedLanguage : RussianDefault : YesForced : Yes
    Text #2ID : 5Format : UTF-8Codec ID : S_TEXT/UTF8Codec ID/Info : UTF-8 Plain TextDuration : 1h 21mnBit rate : 100 bpsCount of elements : 1122Stream size : 60.3 KiB (0%)Language : RussianDefault : NoForced : No
    Text #3ID : 6Format : UTF-8Codec ID : S_TEXT/UTF8Codec ID/Info : UTF-8 Plain TextDuration : 1h 21mnBit rate : 57 bpsCount of elements : 1062Stream size : 34.6 KiB (0%)Language : EnglishDefault : NoForced : No
    Text #4ID : 7Format : UTF-8Codec ID : S_TEXT/UTF8Codec ID/Info : UTF-8 Plain TextDuration : 1h 22mnBit rate : 69 bpsCount of elements : 1382Stream size : 41.9 KiB (0%)Title : SDHLanguage : EnglishDefault : NoForced : No
    Menu00:00:00.000 : en:00:00:00.00000:06:54.331 : en:00:06:54.33100:11:00.994 : en:00:11:00.99400:16:25.735 : en:00:16:25.73500:21:37.630 : en:00:21:37.63000:26:43.727 : en:00:26:43.72700:31:46.863 : en:00:31:46.86300:36:48.706 : en:00:36:48.70600:41:57.056 : en:00:41:57.05600:46:54.979 : en:00:46:54.97900:52:19.595 : en:00:52:19.59500:57:28.487 : en:00:57:28.48701:01:27.851 : en:01:01:27.85101:06:16.139 : en:01:06:16.13901:11:52.099 : en:01:11:52.09901:16:25.873 : en:01:16:25.873
    Скриншоты

    Зеркало


    Скачать .torrent

    Скачать торрент-файл бесплатно и на максимальной скорости!

    Как скачивать? · Что такое торрент? · Рейтинг и ограничения

    !ВНИМАНИЕ!
    Сайт не распространяет и не хранит электронные версии произведений, а занимается лишь лишь предоставлением доступа к создаваемому пользователями каталогу ссылок на торрент-файлы, которые содержат только списки хеш-сумм, убедительная просьба с жалобами обращаться напрямую к пользователю. Файлы для обмена на трекере предоставлены пользователями сайта, и администрация не несёт ответственности за их содержание. Просьба не заливать файлы, защищенные авторскими правами, а также файлы нелегального содержания!


    _________________
    [Профиль] [ЛС]
    Показать сообщения:    
    Ответить на тему

    Текущее время: Сегодня, в 10:44

    Часовой пояс: GMT + 2



    Вы не можете начинать темы
    Вы не можете отвечать на сообщения
    Вы не можете редактировать свои сообщения
    Вы не можете удалять свои сообщения
    Вы не можете голосовать в опросах
    Вы не можете прикреплять файлы к сообщениям
    Вы не можете скачивать файлы