BitTorrentTracker PerecTracker.org
BitTorrentTracker PerecTracker.org
    
Регистрация  ·  Вход
 
 · 
Забыли пароль?

  • Дамский угодник / The Ladies Man (Реджинальд Хадлин / Reginald Hudlin) [2000, США, комедия, WEB-DL 720p] MVO (R5) + DVO (Премьер Видео Фильм) + Original (Eng) + Sub (Eng)

    Ответить на тему
     
    Автор Сообщение

    Light

    Создавать темы 03-Июн-2016 16:01

           

    [Цитировать]

    Дамский угодник / The Ladies Man-Год выпуска: 2000
    Страна: США
    Студия: Paramount Pictures
    Жанр: комедия
    Продолжительность: 01:24:18
    Перевод:
    • Профессиональный (многоголосый закадровый) R5
    • Профессиональный (двухголосый закадровый) Премьер Видео Фильм |VHS|
    Cубтитры: английские
    Оригинальная аудиодорожка: английский
    -Режиссер: Реджинальд Хадлин / Reginald Hudlin-В ролях: Тим Медоуз, Керин Парсонс, Билли Ди Уильямс, Джон Уизерспун, Ли Эванс, Уилл Феррелл, Юджин Леви, Тиффани Тиссен, Джулианна Мур и другие.-Роли озвучивали (Премьер Видео Фильм): Дмитрий Полонский, Людмила Ильина.-Описание: Познакомьтесь с Леоном Фелпсом! Какая яркая и нестандартная личность! Правда, как и все мы, Леон несовершенен. Во-первых: он — шепелявит! Во-вторых: Леон — гордый обладатель неотразимой прически, от которой пришла бы в ужас даже сама Анджела Дэвис. В третьих: он чудовищно одевается, нисколько не стесняясь этого досадного обстоятельства. И, что особенно печально, мистер Фелпс вряд ли сможет похвастаться особым умом и сообразительностью. Но это — не главное! Главное, что все женщины в городе сходят по нему с ума! Леон — ведущий ночного супероткровенного эротического радиошоу «Дамский угодник», программы, от которой приходят в экстаз все представительницы слабого пола. И поверьте, Леон не просто ведущий: об его интимных подвигах ходят легенды. Поэтому, господа, усвойте важное правило! Ни в коем случае не оставляйте свою девушку или жену наедине с Леоном хотя бы на минуту: вы рискуете потерять свою подругу навсегда! Берегитесь! Сегодня у Леона отличное настроение, и он отправляется на поиски любовных приключений.-РЕЛИЗ ОТ: V.SERIJ2013-

    Спасибо

    • Саша и Серёжа - за покупку DVD
    • Fikaloid - за оцифровку VHS-издания Премьер Видео Фильм
    • v.serij2013 (т.е., мне) - за обработку и сведение.
    -Качество: WEB-DL 720p |FGT|
    Формат: MKV
    Видео кодек: H.264
    Аудио кодек: AC3
    Видео: H.264, 1280x720 (16:9), 23.976 fps, ~3943 kbps, 0.178 bit/pixel
    Аудио:
    • русская |R5|: AC3, 48 kHz, 6 ch, 384 kbps
      русская |Премьер Видео Фильм|: AC3, 48 kHz, 2 ch, 384 kbps
    • английская |Оригинал|: AC3, 48 kHz, 6 ch, 384 kbps
    -Сэмпл \ Кинопоиск-

    Скриншоты

    Media Info

    General
    Unique ID                      : 202443661702559764527227393008955607119 (0x984D3B23A1894BA6AD220FC29E90C84F)
    Complete name                  : E:\Video\HD\Movies (HD)\The Ladies Man (2000) (WEB-DL 720p).mkv
    Format                         : Matroska
    Format version                 : Version 4 / Version 2
    File size                      : 3.06 GiB
    Duration                       : 1h 24mn
    Overall bit rate               : 5 195 Kbps
    Encoded date                   : UTC 2016-06-03 07:39:46
    Writing application            : mkvmerge v8.8.0 ('Wind at my back') 32bit
    Writing library                : libebml v1.3.3 + libmatroska v1.4.4
    DURATION                       : 01:23:41.462000000
    NUMBER_OF_FRAMES               : 965
    NUMBER_OF_BYTES                : 42965
    _STATISTICS_WRITING_APP        : mkvmerge v8.8.0 ('Wind at my back') 32bit
    _STATISTICS_WRITING_DATE_UTC   : 2016-06-03 07:39:46
    _STATISTICS_TAGS               : BPS DURATION NUMBER_OF_FRAMES NUMBER_OF_BYTES
    Video
    ID                             : 1
    Format                         : AVC
    Format/Info                    : Advanced Video Codec
    Format profile                 : High@L3.1
    Format settings, CABAC         : No
    Format settings, ReFrames      : 2 frames
    Codec ID                       : V_MPEG4/ISO/AVC
    Duration                       : 1h 24mn
    Bit rate                       : 3 939 Kbps
    Width                          : 1 280 pixels
    Height                         : 720 pixels
    Display aspect ratio           : 16:9
    Frame rate mode                : Constant
    Frame rate                     : 23.976 fps
    Color space                    : YUV
    Chroma subsampling             : 4:2:0
    Bit depth                      : 8 bits
    Scan type                      : Progressive
    Bits/(Pixel*Frame)             : 0.178
    Stream size                    : 2.32 GiB (76%)
    Language                       : English
    Default                        : Yes
    Forced                         : No
    Color primaries                : BT.709
    Transfer characteristics       : BT.709
    Matrix coefficients            : BT.709
    Color range                    : Limited
    Audio #1
    ID                             : 2
    Format                         : AC-3
    Format/Info                    : Audio Coding 3
    Mode extension                 : CM (complete main)
    Format settings, Endianness    : Big
    Codec ID                       : A_AC3
    Duration                       : 1h 24mn
    Bit rate mode                  : Constant
    Bit rate                       : 384 Kbps
    Channel(s)                     : 6 channels
    Channel positions              : Front: L C R, Side: L R, LFE
    Sampling rate                  : 48.0 KHz
    Bit depth                      : 16 bits
    Compression mode               : Lossy
    Stream size                    : 232 MiB (7%)
    Title                          : MVO (R5)
    Language                       : Russian
    Default                        : Yes
    Forced                         : No
    Audio #2
    ID                             : 3
    Format                         : AC-3
    Format/Info                    : Audio Coding 3
    Mode extension                 : CM (complete main)
    Format settings, Endianness    : Big
    Codec ID                       : A_AC3
    Duration                       : 1h 24mn
    Bit rate mode                  : Constant
    Bit rate                       : 384 Kbps
    Channel(s)                     : 2 channels
    Channel positions              : Front: L R
    Sampling rate                  : 48.0 KHz
    Bit depth                      : 16 bits
    Compression mode               : Lossy
    Stream size                    : 232 MiB (7%)
    Title                          : DVO (Премьер Видео Фильм)
    Language                       : Russian
    Default                        : No
    Forced                         : No
    Audio #3
    ID                             : 4
    Format                         : AC-3
    Format/Info                    : Audio Coding 3
    Mode extension                 : CM (complete main)
    Format settings, Endianness    : Big
    Codec ID                       : A_AC3
    Duration                       : 1h 24mn
    Bit rate mode                  : Constant
    Bit rate                       : 384 Kbps
    Channel(s)                     : 6 channels
    Channel positions              : Front: L C R, Side: L R, LFE
    Sampling rate                  : 48.0 KHz
    Bit depth                      : 16 bits
    Compression mode               : Lossy
    Stream size                    : 232 MiB (7%)
    Title                          : Original
    Language                       : English
    Default                        : No
    Forced                         : No
    Text
    ID                             : 5
    Format                         : UTF-8
    Codec ID                       : S_TEXT/UTF8
    Codec ID/Info                  : UTF-8 Plain Text
    Title                          : Original
    Language                       : English
    Default                        : No
    Forced                         : No
    Menu
    00:00:00.000                   : en:Romantic Queries
    00:06:58.000                   : en:It's A Lady
    00:10:42.000                   : en:I Gotta Go
    00:12:41.000                   : en:Love Poem
    00:18:51.000                   : en:The Skankuary
    00:23:07.000                   : en:The Job Hunt
    00:25:58.000                   : en:The Lord's Man
    00:29:07.000                   : en:Mystery Lady
    00:38:04.000                   : en:Looking For A Love
    00:41:19.000                   : en:For Julie's Honor
    00:47:13.000                   : en:VSA Swing
    00:50:23.000                   : en:The Big Time
    00:57:12.000                   : en:Julie's Bedroom
    01:03:08.000                   : en:The Makeover
    01:06:11.000                   : en:"Girl Of My Dreams"
    01:12:39.000                   : en:VSA Showdown
    01:14:35.000                   : en:A Declaration Of Love
    01:19:31.000                   : en:True Love
    -
    Скачать .torrent

    Скачать торрент-файл бесплатно и на максимальной скорости!

    Как скачивать? · Что такое торрент? · Рейтинг и ограничения

    !ВНИМАНИЕ!
    Сайт не распространяет и не хранит электронные версии произведений, а занимается лишь лишь предоставлением доступа к создаваемому пользователями каталогу ссылок на торрент-файлы, которые содержат только списки хеш-сумм, убедительная просьба с жалобами обращаться напрямую к пользователю. Файлы для обмена на трекере предоставлены пользователями сайта, и администрация не несёт ответственности за их содержание. Просьба не заливать файлы, защищенные авторскими правами, а также файлы нелегального содержания!


    _________________
    [Профиль] [ЛС]
    Показать сообщения:    
    Ответить на тему

    Текущее время: Сегодня, в 19:59

    Часовой пояс: GMT + 2



    Вы не можете начинать темы
    Вы не можете отвечать на сообщения
    Вы не можете редактировать свои сообщения
    Вы не можете удалять свои сообщения
    Вы не можете голосовать в опросах
    Вы не можете прикреплять файлы к сообщениям
    Вы не можете скачивать файлы