BitTorrentTracker PerecTracker.org
BitTorrentTracker PerecTracker.org
    
Регистрация  ·  Вход
 
 · 
Забыли пароль?

  • Точка невозврата / Crossing Point (Дэниэл Дзирилли / Daniel Zirilli) [2016, США, Боевик, DVDRip] VO (Петр Титов) + Original Eng

    Ответить на тему
     
    Автор Сообщение

    rechyn

    Создавать темы 03-Июн-2016 11:49

           

    [Цитировать]

    Точка невозврата / Crossing Point
    Страна: США
    Жанр: Боевик
    Год выпуска: 2016
    Продолжительность: 01:31:42
    Перевод: Одноголосый закадровый (Петр Титов)
    Cубтитры: нет
    Оригинальная аудиодорожка: английский
    Режиссер: Дэниэл Дзирилли/Daniel Zirilli
    В ролях: Шон Лок, Паулина Гайтан, Том Сайзмор, Джейкоб Варгас, Мария Габриела де Фария, Руди Янгблад, Люк Госс
    Описание: Молодая американская пара влюбленных (Майкл и Оливия) отдыхают в Байе. События принимают пугающий поворот, когда Оливию похищает наркодилер, который требует от Майкла переправить через границу США контрабанду — рюкзак, полный кокаина, украденный у конкурирующего наркокартеля, в течение 12 часов, иначе Оливия будет убита. Хороший полицейский из Тихуаны идет по следу, в то время как Майкл переходит в предательский преступный мир Мексики, и он сам становится силой, с которой нельзя не считаться…
    Сэмпл: https://www.sendspace.com/file/m33kxx
    Качество видео: DVDRip
    Формат видео: AVI
    Видео: Xvid 720x384 23.976fps, 1 720 Kbps
    Аудио: MP3, 44100 Hz, 320 Kbps
    Аудио 2: Dolby AC3 48000Hz 6ch 448kbps (оригинал)

    MediaInfo

    General
    Complete name : C:\скаченное\фильмы\Точка невозврата\Точка невозврата.avi
    Format : AVI
    Format/Info : Audio Video Interleave
    File size : 1.60 GiB
    Duration : 1h 31mn
    Overall bit rate : 2 502 Kbps
    Writing application : VirtualDubMod 1.5.10.2 (build 2540/release)
    Writing library : VirtualDubMod build 2540/release
    Video
    ID : 0
    Format : MPEG-4 Visual
    Format profile : Simple@L3
    Format settings, BVOP : No
    Format settings, QPel : No
    Format settings, GMC : No warppoints
    Format settings, Matrix : Default (H.263)
    Codec ID : XVID
    Codec ID/Hint : XviD
    Duration : 1h 31mn
    Bit rate : 1 720 Kbps
    Width : 720 pixels
    Height : 384 pixels
    Display aspect ratio : 1.85:1
    Frame rate : 23.976 fps
    Color space : YUV
    Chroma subsampling : 4:2:0
    Bit depth : 8 bits
    Scan type : Progressive
    Compression mode : Lossy
    Bits/(Pixel*Frame) : 0.259
    Stream size : 1.10 GiB (69%)
    Writing library : XviD 1.1.2 (UTC 2006-11-01)
    Audio #1
    ID : 1
    Format : MPEG Audio
    Format version : Version 1
    Format profile : Layer 3
    Codec ID : 55
    Codec ID/Hint : MP3
    Duration : 1h 31mn
    Bit rate mode : Constant
    Bit rate : 320 Kbps
    Channel(s) : 2 channels
    Sampling rate : 44.1 KHz
    Compression mode : Lossy
    Stream size : 210 MiB (13%)
    Alignment : Split accross interleaves
    Interleave, duration : 42 ms (1.00 video frame)
    Interleave, preload duration : 500 ms
    Audio #2
    ID : 2
    Format : AC-3
    Format/Info : Audio Coding 3
    Mode extension : CM (complete main)
    Format settings, Endianness : Big
    Codec ID : 2000
    Duration : 1h 31mn
    Bit rate mode : Constant
    Bit rate : 448 Kbps
    Channel(s) : 6 channels
    Channel positions : Front: L C R, Side: L R, LFE
    Sampling rate : 48.0 KHz
    Bit depth : 16 bits
    Compression mode : Lossy
    Stream size : 294 MiB (18%)
    Alignment : Split accross interleaves
    Interleave, duration : 42 ms (1.00 video frame)
    Interleave, preload duration : 500 ms

    Скриншот c названием фильма

    Скриншоты

    Скачать .torrent

    Скачать торрент-файл бесплатно и на максимальной скорости!

    Как скачивать? · Что такое торрент? · Рейтинг и ограничения

    !ВНИМАНИЕ!
    Сайт не распространяет и не хранит электронные версии произведений, а занимается лишь лишь предоставлением доступа к создаваемому пользователями каталогу ссылок на торрент-файлы, которые содержат только списки хеш-сумм, убедительная просьба с жалобами обращаться напрямую к пользователю. Файлы для обмена на трекере предоставлены пользователями сайта, и администрация не несёт ответственности за их содержание. Просьба не заливать файлы, защищенные авторскими правами, а также файлы нелегального содержания!


    _________________
    [Профиль] [ЛС]
    Показать сообщения:    
    Ответить на тему

    Текущее время: Сегодня, в 23:11

    Часовой пояс: GMT + 2



    Вы не можете начинать темы
    Вы не можете отвечать на сообщения
    Вы не можете редактировать свои сообщения
    Вы не можете удалять свои сообщения
    Вы не можете голосовать в опросах
    Вы не можете прикреплять файлы к сообщениям
    Вы не можете скачивать файлы