BitTorrentTracker PerecTracker.org
BitTorrentTracker PerecTracker.org
    
Регистрация  ·  Вход
 
 · 
Забыли пароль?

  • Джек / Jack (Эдвард Бергер / Edward Berger) [2014, Германия, Драма, DVDRip-AVC] VO (Максим Ивона) + Sub Rus + Original Ger

    Ответить на тему
     
    Автор Сообщение

    Light

    Создавать темы 03-Июн-2016 11:49

           

    [Цитировать]

    Джек / Jack
    Страна: Германия
    Жанр: Драма
    Год выпуска: 2014
    Продолжительность: 01:38:04
    Перевод: Одноголосый закадровый Максим Ивона
    Cубтитры: русские
    Оригинальная аудиодорожка: немецкий
    Режиссер: Эдвард Бергер / Edward Berger
    В ролях: Луизе Хейер, Неля Мюллер-Штофен, Винсент Редецки, Якоб Маченц, Одине Йоне, Йохан Юргенс, Энтони Арнольд, Жорж Армс
    Описание: Не смотря на то, что ему только десять лет, Джек отвечает не только за себя, но и за своего младшего брата Мануэля, что наполняет самого Джека гордостью. Их мать-одиночка весь день работает, а по ночам часто куда-то уходит. Отца никто никогда не видел и на горизонте. Однажды Мануэль обжигает себя кипящей водой во время купания. За этот несчастный случай винят Джека, что становится достаточным для того, чтобы социальные службы могли его отправить в учреждение подальше от дома. Вскоре мальчик попадает в неприятности, из-за которых сбегает обратно домой. Дома же он обнаруживает, что их мать опять куда-то пропала. Джек и Мануэль начинают своё скитание по городу в поисках матери. Они спят в парках и подземных автомобильных стоянках, убегают от полиции и случайно встречаются со взрослыми, среди которых одни помогают, а другие остаются равнодушными.
    Сэмпл: http://sendfile.su/1239276
    Качество видео: DVDRip-AVC
    Формат видео: MKV
    Видео: AVC; 720x576@1024x576 (4:2:0); 1 600 Kbps; 25.000 fps
    Аудио: Russian: AAC, 48 KHz, 2 ch, 196 Kbps
    Аудио 2: German: AAC, 48 KHz, 2 ch, 196 Kbps
    Формат субтитров: hardsub
    Доп. информация о субтитрах: Автор: Владимир Даль

    MediaInfo

    Format : Matroska
    Format version : Version 4 / Version 2
    File size : 1.37 GiB
    Duration : 1h 38mn
    Overall bit rate : 1 995 Kbps
    Encoded date : UTC 2016-02-16 18:21:14
    Writing application : mkvmerge v8.3.0 ('Over the Horizon') 64bit
    Writing library : libebml v1.3.1 + libmatroska v1.4.2
    Video
    ID : 1
    Format : AVC
    Format/Info : Advanced Video Codec
    Format profile : High@L4.1
    Format settings, CABAC : Yes
    Format settings, ReFrames : 4 frames
    Codec ID : V_MPEG4/ISO/AVC
    Duration : 1h 38mn
    Bit rate : 1 600 Kbps
    Width : 720 pixels
    Height : 576 pixels
    Display aspect ratio : 16:9
    Frame rate mode : Constant
    Frame rate : 25.000 fps
    Standard : PAL
    Color space : YUV
    Chroma subsampling : 4:2:0
    Bit depth : 8 bits
    Scan type : Progressive
    Bits/(Pixel*Frame) : 0.154
    Stream size : 1.10 GiB (80%)
    Writing library : x264 core 142 r2479 dd79a61
    Encoding settings : cabac=1 / ref=3 / deblock=1:0:0 / analyse=0x3:0x113 / me=hex / subme=7 / psy=1 / psy_rd=1.00:0.00 / mixed_ref=1 / me_range=16 / chroma_me=1 / trellis=1 / 8x8dct=1 / cqm=0 / deadzone=21,11 / fast_pskip=1 / chroma_qp_offset=-2 / threads=3 / lookahead_threads=1 / sliced_threads=0 / nr=0 / decimate=1 / interlaced=0 / bluray_compat=0 / constrained_intra=0 / bframes=3 / b_pyramid=2 / b_adapt=1 / b_bias=0 / direct=1 / weightb=1 / open_gop=0 / weightp=2 / keyint=250 / keyint_min=25 / scenecut=40 / intra_refresh=0 / rc_lookahead=40 / rc=2pass / mbtree=1 / bitrate=1600 / ratetol=1.0 / qcomp=0.60 / qpmin=0 / qpmax=69 / qpstep=4 / cplxblur=20.0 / qblur=0.5 / vbv_maxrate=62500 / vbv_bufsize=78125 / nal_hrd=none / filler=0 / ip_ratio=1.40 / aq=1:1.00
    Default : Yes
    Forced : No
    Color range : Limited
    Color primaries : BT.601 PAL
    Transfer characteristics : BT.709
    Matrix coefficients : BT.601
    Audio #1
    ID : 2
    Format : AAC
    Format/Info : Advanced Audio Codec
    Format profile : LC
    Codec ID : A_AAC
    Duration : 1h 38mn
    Bit rate : 196 Kbps
    Channel(s) : 2 channels
    Channel positions : Front: L R
    Sampling rate : 48.0 KHz
    Frame rate : 46.875 fps (1024 spf)
    Compression mode : Lossy
    Stream size : 137 MiB (10%)
    Default : Yes
    Forced : No
    Audio #2
    ID : 3
    Format : AAC
    Format/Info : Advanced Audio Codec
    Format profile : LC
    Codec ID : A_AAC
    Duration : 1h 38mn
    Bit rate : 196 Kbps
    Channel(s) : 2 channels
    Channel positions : Front: L R
    Sampling rate : 48.0 KHz
    Frame rate : 46.875 fps (1024 spf)
    Compression mode : Lossy
    Stream size : 137 MiB (10%)
    Default : No
    Forced : No
    Text
    ID : 4
    Format : UTF-8
    Codec ID : S_TEXT/UTF8
    Codec ID/Info : UTF-8 Plain Text
    Duration : 1h 36mn
    Bit rate : 27 bps
    Count of elements : 441
    Stream size : 19.1 KiB (0%)
    Language : Russian
    Default : No
    Forced : No

    Скриншот c названием фильма

    Скриншоты






    Скачать .torrent

    Скачать торрент-файл бесплатно и на максимальной скорости!

    Как скачивать? · Что такое торрент? · Рейтинг и ограничения

    !ВНИМАНИЕ!
    Сайт не распространяет и не хранит электронные версии произведений, а занимается лишь лишь предоставлением доступа к создаваемому пользователями каталогу ссылок на торрент-файлы, которые содержат только списки хеш-сумм, убедительная просьба с жалобами обращаться напрямую к пользователю. Файлы для обмена на трекере предоставлены пользователями сайта, и администрация не несёт ответственности за их содержание. Просьба не заливать файлы, защищенные авторскими правами, а также файлы нелегального содержания!


    _________________
    [Профиль] [ЛС]
    Показать сообщения:    
    Ответить на тему

    Текущее время: Сегодня, в 05:22

    Часовой пояс: GMT + 2



    Вы не можете начинать темы
    Вы не можете отвечать на сообщения
    Вы не можете редактировать свои сообщения
    Вы не можете удалять свои сообщения
    Вы не можете голосовать в опросах
    Вы не можете прикреплять файлы к сообщениям
    Вы не можете скачивать файлы