BitTorrentTracker PerecTracker.org
BitTorrentTracker PerecTracker.org
    
Регистрация  ·  Вход
 
 · 
Забыли пароль?

  • Черепашки-ниндзя 2 / Teenage Mutant Ninja Turtles: Out of the Shadows (2016) CAMRip | D

    Ответить на тему
     
    Автор Сообщение

    BOSS

    Создавать темы 03-Июн-2016 06:45

           

    [Цитировать]

    Черепашки-ниндзя 2 / Teenage Mutant Ninja Turtles: Out of the Shadows
    Страна: США Производство: Paramount Pictures, Nickelodeon Movies, Platinum Dunes, Gama Entertainment Partners
    Год выпуска: 2016
    Жанр: фантастика, фэнтези, боевик, комедия, приключения
    Продолжительность: 01:39:44
    Режиссер: Дэйв Грин
    Авторы сценария: Джош Аппелбаум, Андре Немец, Питер Лэрд
    В ролях: Меган Фокс, Стивен Амелл, Алан Ричсон, Лора Линни, Уилл Арнетт, Ноэль Фишер, Стефен Фаррелли, Алессандра Амброзио
    Описание: Долгое время черепашки-ниндзя скрывались от людей в лабиринтах городской канализации. На протяжении нескольких лет учитель Сплинтер обучал их боевым искусствам и прививал им чувство справедливости. В один прекрасный момент им пришлось подняться наверх, чтобы спасти Нью-Йорк от Шредера, предводителя Клана Футов, захватившего власть в Нью-Йорке. Вместе с отважным репортером Эйприл и ее оператором Верном, бесстрашные воины смогли одержать победу и очистить любимый город от преступности. Леонардо, Микеланджело, Рафаэль и Донателло нашли свое предназначение в этом мире и стали защитниками своего города. Они навели порядок в Нью-Йорке и с чистой совестью могли отправиться на покой, но однажды им вновь пришлось столкнуться с могущественным врагом, угрожающим их городу…

    Перевод: Профессиональный (полное дублирование)
    Субтитры: нет-Качество: CAMRip
    Формат: АVI
    Видео кодек: XviD
    Аудио кодек: АС3
    Видео: 720x400 (16:9), 29.970 fps, XviD ~1 282 kbps avg
    Аудио: 48.0 kHz, AC3 Dolby Digital, 2/0 (L,R) ch, ~192 kbps
    Дата премьеры (мир): 30 мая 2016
    Дата премьеры (РФ): 2 июня 2016, «Централ Партнершип»
    ПРИМЕЧАНИЕ: ПРИСУТСТВУЕТ РЕКЛАМА!

    Media Info

    General
    Format : AVI
    Format/Info : Audio Video Interleave
    Overall bit rate : 1 487 Kbps
    Writing application : VirtualDubMod 1.5.10.3 | (build 2550/release)
    Writing library : VirtualDubMod build 2550/release
    Video
    ID : 0
    Format : MPEG-4 Visual
    Format profile : Advanced Simple@L5
    Format settings, BVOP : 2
    Format settings, QPel : No
    Format settings, GMC : No warppoints
    Format settings, Matrix : Default (MPEG)
    Codec ID : XVID
    Codec ID/Hint : XviD
    Bit rate : 1 282 Kbps
    Width : 720 pixels
    Height : 400 pixels
    Display aspect ratio : 16:9
    Frame rate : 29.970 fps
    Color space : YUV
    Chroma subsampling : 4:2:0
    Bit depth : 8 bits
    Scan type : Progressive
    Compression mode : Lossy
    Bits/(Pixel*Frame) : 0.149
    Stream size : 11.4 MiB (86%)
    Writing library : XviD 1.2.1 (UTC 2008-12-04)
    Audio
    ID : 1
    Format : AC-3
    Format/Info : Audio Coding 3
    Mode extension : CM (complete main)
    Format settings, Endianness : Big
    Codec ID : 2000
    Bit rate mode : Constant
    Bit rate : 192 Kbps
    Channel(s) : 2 channels
    Channel positions : Front: L R
    Sampling rate : 48.0 KHz
    Compression mode : Lossy
    Delay relative to video : 26ms
    Stream size : 1.70 MiB (13%)
    Alignment : Split accross interleaves
    Interleave, duration : 34 ms (1.01 video frame)
    Interleave, preload duration : 500 ms

    Скриншоты

    Скачать .torrent

    Скачать торрент-файл бесплатно и на максимальной скорости!

    Как скачивать? · Что такое торрент? · Рейтинг и ограничения

    !ВНИМАНИЕ!
    Сайт не распространяет и не хранит электронные версии произведений, а занимается лишь лишь предоставлением доступа к создаваемому пользователями каталогу ссылок на торрент-файлы, которые содержат только списки хеш-сумм, убедительная просьба с жалобами обращаться напрямую к пользователю. Файлы для обмена на трекере предоставлены пользователями сайта, и администрация не несёт ответственности за их содержание. Просьба не заливать файлы, защищенные авторскими правами, а также файлы нелегального содержания!

    [Профиль] [ЛС]
    Показать сообщения:    
    Ответить на тему

    Текущее время: Сегодня, в 16:41

    Часовой пояс: GMT + 2



    Вы не можете начинать темы
    Вы не можете отвечать на сообщения
    Вы не можете редактировать свои сообщения
    Вы не можете удалять свои сообщения
    Вы не можете голосовать в опросах
    Вы не можете прикреплять файлы к сообщениям
    Вы не можете скачивать файлы