BitTorrentTracker PerecTracker.org
BitTorrentTracker PerecTracker.org
    
Регистрация  ·  Вход
 
 · 
Забыли пароль?

  • Неприкасаемые / Лионцы / Les Lyonnais / A Gang Story (Оливье Маршаль / Olivier Marchal) [2011, Франция, Бельгия, Драма, криминал, реальные события, экранизация, BDRip] DUB + AVO (Карповский) + Original Fra + Sub Rus, Fra, Eng

    Ответить на тему
     
    Автор Сообщение

    Light

    Создавать темы 03-Июн-2016 03:30

           

    [Цитировать]

    Неприкасаемые / Лионцы / Les Lyonnais / A Gang Story
    Страна: Франция, Бельгия
    Студия: 13e Rue, A Plus Image 2, Backup Films, Canal+, Ciné Cinémas, Coficup, France 2 Cinéma, France Télévision, Gaumont, Hatalom, LGM Productions, Nexus Factory, Rhône-Alpes Cinéma, uFilm, uFund
    Жанр: Драма, криминал, реальные события, экранизация
    Год выпуска: 2011
    Продолжительность: 01:42:05
    Перевод 1: Профессиональный (дублированный) (BD RUS)
    Перевод 2: Авторский (одноголосый закадровый) Антон Карповский
    Cубтитры: русские, французские, английские (все - внешние)
    Оригинальная аудиодорожка: французский
    Режиссер: Оливье Маршаль / Olivier Marchal
    В ролях: Жерар Ланвен, Чеки Карио, Даниэль Дюваль, Дмитрий Сторож, Патрик Каталифо, Франсуа Леванталь, Франсис Рено, Лионель Астье, Валерия Кавалли, Эстелл Скорник, Оливье Шантро, Стефани Кайлар, Флорен Бижо де Неслс, Николя Жеру, Оливье Рабурден, Симон Астье, Лорен Ричард, Лорен Фернандез, Маню Ланвен, Этьен Шико, Николас Абрахам, Лоран Ольмедо, Кристоф Курочкин, Симон Спортиш, Дэвид Камменос, Жак Лаказе, Паскуале Д’Инка, Жан-Пьерр Лорен
    Описание: Момон Видаль - спокойный и уверенный седой старик, с подкачанной фигурой, способный на грандиозный поступок. Его молодость прошла в налётах на банки, почты, и прочие учреждения, где можно было поживиться деньгами. Он был дерзок, прошёл череду тяжких испытаний, - тюремные срока, разлуку с любимой женщиной, предательство друга, - и всё это не сломало его, а скорее сковало новый образ старого уставшего бандита, живущего по прежним понятиям лихой лионской банды. Сам сценарий раскрывает сложные грани жизни старого бандита в современном мире, где ему никак не удается успокоиться, и превратиться в дедушку, окруженному многочисленными детьми и внуками. Жизнь заставляет Момона принимать всё те же дерзкие поступки, которыми изобиловала его молодость. Он освобождает друга из тюрьмы, спасает его всеми силами, неся потери. У него сложные отношения с женой, разделившей с ним всю его длинную и полную перипетий жизнь, и надо сказать, что французы умеют снимать драматические эпизоды так, что их хочется пересматривать по несколько раз.
    Дополнительная информация:
    Автор релиза - ylnian
    Заказ перевода у Антона Карповского (май 2016) - ylnian
    За сборку дороги спасибо rammzez
    Источник дорожки с дубляжом - Blu-Ray (RUS) - Неприкасаемые / A Gang Story / Les Lyonnais (2011) Blu-ray RUS 1080p MPEG-2 DD5.1-HDCLUB
    Источник для рипа - Blu-Ray (NOR) - Les Lyonnais 2011 1080p NOR Blu-ray AVC DTS-HD MA 5.1-HDMike


    Сэмпл: https://yadi.sk/i/xqCmEB-ysCv5s
    Качество видео: BDRip
    Формат видео: AVI
    Видео: XviD, 720x304 (2,35:1), 24.000 fps, 1585 kbps, 0.302 bit/pixel
    Аудио 1: Русский AC3, 48000 Гц, 6ch, 448 kbps - DUB
    Аудио 2: Русский AC3, 48000 Гц, 6ch, 448 kbps - AVO - внешняя
    Аудио 3: Французский AC3, 48000 Гц, 6ch, 448 kbps - внешняя
    Формат субтитров: softsub (SRT)

    MediaInfo

    Общее
    Полное имя : B:\Les.Lyonnais.2011.BDRip-ylnian\Les.Lyonnais.2011.BDRip-ylnian.avi
    Формат : AVI
    Формат/Информация : Audio Video Interleave
    Размер файла : 1,46 Гбайт
    Продолжительность : 1 ч. 42 м.
    Общий поток : 2042 Кбит/сек
    Программа кодирования : VirtualDubMod 1.5.10.2 (build 2540/release)
    Библиотека кодирования : VirtualDubMod build 2540/release
    Видео
    Идентификатор : 0
    Формат : MPEG-4 Visual
    Профиль формата : Advanced Simple@L5
    Параметр BVOP формата : 1
    Параметр QPel формата : Нет
    Параметр GMC формата : Без точки перехода
    Параметр матрицы формата : Default (MPEG)
    Идентификатор кодека : XVID
    Идентификатор кодека/Подсказка : XviD
    Продолжительность : 1 ч. 42 м.
    Битрейт : 1585 Кбит/сек
    Ширина : 720 пикселей
    Высота : 304 пикселя
    Соотношение сторон : 2,35:1
    Частота кадров : 24,000 кадра/сек
    Цветовое пространство : YUV
    Субдискретизация насыщенности : 4:2:0
    Битовая глубина : 8 бит
    Тип развёртки : Прогрессивная
    Метод сжатия : С потерями
    Бит/(Пиксели*Кадры) : 0.302
    Размер потока : 1,13 Гбайт (78%)
    Библиотека кодирования : XviD 67
    Аудио
    Идентификатор : 1
    Формат : AC-3
    Формат/Информация : Audio Coding 3
    Расширение режима : CM (complete main)
    Параметр Endianness формата : Big
    Идентификатор кодека : 2000
    Продолжительность : 1 ч. 42 м.
    Вид битрейта : Постоянный
    Битрейт : 448 Кбит/сек
    Каналы : 6 каналов
    Расположение каналов : Front: L C R, Side: L R, LFE
    Частота : 48,0 КГц
    Частота кадров : 31,250 кадров/сек (1536 spf)
    Метод сжатия : С потерями
    Размер потока : 327 Мбайт (22%)
    Выравнивание : Разделение по промежуткам
    Продолжительность промежутка : 42 мс. (1,00 видеокадр)
    Время предзагрузки промежутка : 500 мс.
    Заголовок : DUB
    Общее
    Полное имя : B:\Les.Lyonnais.2011.BDRip-ylnian\Les.Lyonnais.2011.BDRip-ylnian_eng.srt
    Формат : SubRip
    Размер файла : 56,1 Кбайт
    Текст
    Формат : SubRip
    Метод сжатия : Без потерь
    Общее
    Полное имя : B:\Les.Lyonnais.2011.BDRip-ylnian\Les.Lyonnais.2011.BDRip-ylnian_FR.ac3
    Формат : AC-3
    Формат/Информация : Audio Coding 3
    Размер файла : 327 Мбайт
    Продолжительность : 1 ч. 42 м.
    Режим общего битрейта : Постоянный
    Общий поток : 448 Кбит/сек
    Аудио
    Формат : AC-3
    Формат/Информация : Audio Coding 3
    Расширение режима : CM (complete main)
    Параметр Endianness формата : Big
    Продолжительность : 1 ч. 42 м.
    Вид битрейта : Постоянный
    Битрейт : 448 Кбит/сек
    Каналы : 6 каналов
    Расположение каналов : Front: L C R, Side: L R, LFE
    Частота : 48,0 КГц
    Частота кадров : 31,250 кадров/сек (1536 spf)
    Метод сжатия : С потерями
    Размер потока : 327 Мбайт (100%)
    Общее
    Полное имя : B:\Les.Lyonnais.2011.BDRip-ylnian\Les.Lyonnais.2011.BDRip-ylnian_fre.srt
    Формат : SubRip
    Размер файла : 60,5 Кбайт
    Текст
    Формат : SubRip
    Метод сжатия : Без потерь
    Общее
    Полное имя : B:\Les.Lyonnais.2011.BDRip-ylnian\Les.Lyonnais.2011.BDRip-ylnian_Karpovsky.ac3
    Формат : AC-3
    Формат/Информация : Audio Coding 3
    Размер файла : 327 Мбайт
    Продолжительность : 1 ч. 42 м.
    Режим общего битрейта : Постоянный
    Общий поток : 448 Кбит/сек
    Аудио
    Формат : AC-3
    Формат/Информация : Audio Coding 3
    Расширение режима : CM (complete main)
    Параметр Endianness формата : Big
    Продолжительность : 1 ч. 42 м.
    Вид битрейта : Постоянный
    Битрейт : 448 Кбит/сек
    Каналы : 6 каналов
    Расположение каналов : Front: L C R, Side: L R, LFE
    Частота : 48,0 КГц
    Частота кадров : 31,250 кадров/сек (1536 spf)
    Метод сжатия : С потерями
    Размер потока : 327 Мбайт (100%)
    Общее
    Полное имя : B:\Les.Lyonnais.2011.BDRip-ylnian\Les.Lyonnais.2011.BDRip-ylnian_rus.srt
    Формат : SubRip
    Размер файла : 75,4 Кбайт
    Текст
    Формат : SubRip
    Метод сжатия : Без потерь

    Сравнение

    Сравнение с HDRip by Scarabey - http://screenshotcomparison.com/comparison/174643/

    Скриншот c названием фильма

    Скриншоты

    Скачать .torrent

    Скачать торрент-файл бесплатно и на максимальной скорости!

    Как скачивать? · Что такое торрент? · Рейтинг и ограничения

    !ВНИМАНИЕ!
    Сайт не распространяет и не хранит электронные версии произведений, а занимается лишь лишь предоставлением доступа к создаваемому пользователями каталогу ссылок на торрент-файлы, которые содержат только списки хеш-сумм, убедительная просьба с жалобами обращаться напрямую к пользователю. Файлы для обмена на трекере предоставлены пользователями сайта, и администрация не несёт ответственности за их содержание. Просьба не заливать файлы, защищенные авторскими правами, а также файлы нелегального содержания!


    _________________
    [Профиль] [ЛС]
    Показать сообщения:    
    Ответить на тему

    Текущее время: Сегодня, в 11:58

    Часовой пояс: GMT + 2



    Вы не можете начинать темы
    Вы не можете отвечать на сообщения
    Вы не можете редактировать свои сообщения
    Вы не можете удалять свои сообщения
    Вы не можете голосовать в опросах
    Вы не можете прикреплять файлы к сообщениям
    Вы не можете скачивать файлы