BitTorrentTracker PerecTracker.org
BitTorrentTracker PerecTracker.org
    
Регистрация  ·  Вход
 
 · 
Забыли пароль?

  • Семейный бизнес / Family Business (Сидни Люмет / Sidney Lumet) [1989, США, драма, криминал, комедия, WEB-DL 720p] DVO + 3x AVO + VO + Sub Eng + Original Eng

    Ответить на тему
     
    Автор Сообщение

    Light

    Создавать темы 02-Июн-2016 19:06

           

    [Цитировать]

    Семейный бизнес / Family Business
    -Страна: США
    Жанр: Драма, Криминал, Комедия
    Год выпуска: 1989
    Продолжительность: 01:53:46-Перевод 1: Профессиональный (двухголосый закадровый)
    Перевод 2: Авторский (одноголосый закадровый) - Горчаков
    Перевод 3: Авторский (одноголосый закадровый) - Михалев
    Перевод 4: Авторский (одноголосый закадровый) - Либергал
    Перевод 5: Одноголосый закадровый
    Cубтитры: английские
    Оригинальная аудиодорожка: английский-Режиссер: Сидни Люмет / Sidney Lumet-В ролях: Шон Коннери, Дастин Хоффман, Мэттью Бродерик, Розанна ДеСото, Джанет Кэрролл, Виктория Джексон, Билл МакКатчеон, Дебора Раш, Мерлин Купер, Салем Людвиг, Рекс Эверхарт-Описание:
    Джесси - бывалый вор, драчун и ловкий аферист. Ему давно пора на покой, но и на склоне лет он не утратил воровского азарта. Это весьма удручает его сына Вито, который недавно встал на честный путь. Вито не желает иметь ничего общего со своим крутым папашей и надеется, что его сын Адам станет первым членом семьи без криминального прошлого. Поэтому, когда Адам вдруг предлагает деду и отцу, провернув изящное ограбление, зарабоать целый миллион долларов, шокированный Вито отказывается наотрез. Однако Джесси "гениальная" идея Адама кажется очень интересной. Чем станет для уникальной воровской семьи это рискованное дело - очередной причиной для ссоры или удачным поводом собраться вместе?-Сэмпл: Скачать-Тип релиза: WEB-DL 720p
    Контейнер: MKV-Видео: 1280x720 (16:9); 3 903 Kbps; 23.976 fps; 0.178 bpp
    Аудио 1: Russian; AC3; 48.0 KHz; 2ch; 192 Kbps DVO
    Аудио 2: Russian; AC3; 48.0 KHz; 2ch; 192 Kbps AVO Горчаков
    Аудио 3: Russian; AC3; 48.0 KHz; 2ch; 192 Kbps AVO Михалев
    Аудио 4: Russian; AC3; 48.0 KHz; 2ch; 192 Kbps AVO Либергал
    Аудио 5: Russian; AC3; 48.0 KHz; 2ch; 192 Kbps VO
    Аудио 6: English; AAC; 48.0 KHz; 2ch; ~160 Kbps

    MediaInfo

    Format : Matroska
    Format version : Version 4 / Version 2
    File size : 4.06 GiB
    Duration : 1h 53mn
    Overall bit rate : 5 103 Kbps
    Encoded date : UTC 2016-05-28 11:07:06
    Writing application : mkvmerge v8.3.0 ('Over the Horizon') 64bit
    Writing library : libebml v1.3.1 + libmatroska v1.4.2
    Attachements : poster.jpg
    DURATION : 01:53:46.464000000
    NUMBER_OF_FRAMES : 213327
    NUMBER_OF_BYTES : 163835136
    _STATISTICS_WRITING_APP : mkvmerge v8.3.0 ('Over the Horizon') 64bit
    _STATISTICS_WRITING_DATE_UT : 2016-05-28 11:07:06
    _STATISTICS_TAGS : BPS DURATION NUMBER_OF_FRAMES NUMBER_OF_BYTES
    Video
    ID : 1
    Format : AVC
    Format/Info : Advanced Video Codec
    Format profile : High@L3.1
    Format settings, CABAC : No
    Format settings, ReFrames : 2 frames
    Codec ID : V_MPEG4/ISO/AVC
    Duration : 1h 53mn
    Width : 1 280 pixels
    Height : 720 pixels
    Display aspect ratio : 16:9
    Frame rate mode : Constant
    Frame rate : 23.976 fps
    Color space : YUV
    Chroma subsampling : 4:2:0
    Bit depth : 8 bits
    Scan type : Progressive
    Language : English
    Default : Yes
    Forced : No
    Color range : Limited
    Color primaries : BT.709
    Transfer characteristics : BT.709
    Matrix coefficients : BT.709
    Audio #1
    ID : 2
    Format : AC-3
    Format/Info : Audio Coding 3
    Mode extension : CM (complete main)
    Format settings, Endianness : Big
    Codec ID : A_AC3
    Duration : 1h 53mn
    Bit rate mode : Constant
    Bit rate : 192 Kbps
    Channel(s) : 2 channels
    Channel positions : Front: L R
    Sampling rate : 48.0 KHz
    Compression mode : Lossy
    Stream size : 156 MiB (4%)
    Title : DVO
    Language : Russian
    Default : Yes
    Forced : No
    Audio #2
    ID : 3
    Format : AC-3
    Format/Info : Audio Coding 3
    Mode extension : CM (complete main)
    Format settings, Endianness : Big
    Codec ID : A_AC3
    Duration : 1h 53mn
    Bit rate mode : Constant
    Bit rate : 192 Kbps
    Channel(s) : 2 channels
    Channel positions : Front: L R
    Sampling rate : 48.0 KHz
    Compression mode : Lossy
    Stream size : 156 MiB (4%)
    Title : AVO Горчаков
    Language : Russian
    Default : No
    Forced : No
    Audio #3
    ID : 4
    Format : AC-3
    Format/Info : Audio Coding 3
    Mode extension : CM (complete main)
    Format settings, Endianness : Big
    Codec ID : A_AC3
    Duration : 1h 53mn
    Bit rate mode : Constant
    Bit rate : 192 Kbps
    Channel(s) : 2 channels
    Channel positions : Front: L R
    Sampling rate : 48.0 KHz
    Compression mode : Lossy
    Stream size : 156 MiB (4%)
    Title : AVO Михалев
    Language : Russian
    Default : No
    Forced : No
    Audio #4
    ID : 5
    Format : AC-3
    Format/Info : Audio Coding 3
    Mode extension : CM (complete main)
    Format settings, Endianness : Big
    Codec ID : A_AC3
    Duration : 1h 53mn
    Bit rate mode : Constant
    Bit rate : 192 Kbps
    Channel(s) : 2 channels
    Channel positions : Front: L R
    Sampling rate : 48.0 KHz
    Compression mode : Lossy
    Stream size : 156 MiB (4%)
    Title : AVO Либергал
    Language : Russian
    Default : No
    Forced : No
    Audio #5
    ID : 6
    Format : AC-3
    Format/Info : Audio Coding 3
    Mode extension : CM (complete main)
    Format settings, Endianness : Big
    Codec ID : A_AC3
    Duration : 1h 53mn
    Bit rate mode : Constant
    Bit rate : 192 Kbps
    Channel(s) : 2 channels
    Channel positions : Front: L R
    Sampling rate : 48.0 KHz
    Compression mode : Lossy
    Stream size : 156 MiB (4%)
    Title : VO
    Language : Russian
    Default : No
    Forced : No
    Audio #6
    ID : 7
    Format : AAC
    Format/Info : Advanced Audio Codec
    Format profile : LC
    Codec ID : A_AAC
    Duration : 1h 53mn
    Channel(s) : 2 channels
    Channel positions : Front: L R
    Sampling rate : 48.0 KHz
    Compression mode : Lossy
    Language : English
    Default : No
    Forced : No
    Text
    ID : 8
    Format : UTF-8
    Codec ID : S_TEXT/UTF8
    Codec ID/Info : UTF-8 Plain Text
    Language : English
    Default : No
    Forced : No

    Скриншоты

    Скачать .torrent

    Скачать торрент-файл бесплатно и на максимальной скорости!

    Как скачивать? · Что такое торрент? · Рейтинг и ограничения

    !ВНИМАНИЕ!
    Сайт не распространяет и не хранит электронные версии произведений, а занимается лишь лишь предоставлением доступа к создаваемому пользователями каталогу ссылок на торрент-файлы, которые содержат только списки хеш-сумм, убедительная просьба с жалобами обращаться напрямую к пользователю. Файлы для обмена на трекере предоставлены пользователями сайта, и администрация не несёт ответственности за их содержание. Просьба не заливать файлы, защищенные авторскими правами, а также файлы нелегального содержания!


    _________________
    [Профиль] [ЛС]
    Показать сообщения:    
    Ответить на тему

    Текущее время: Сегодня, в 16:16

    Часовой пояс: GMT + 2



    Вы не можете начинать темы
    Вы не можете отвечать на сообщения
    Вы не можете редактировать свои сообщения
    Вы не можете удалять свои сообщения
    Вы не можете голосовать в опросах
    Вы не можете прикреплять файлы к сообщениям
    Вы не можете скачивать файлы