BitTorrentTracker PerecTracker.org
BitTorrentTracker PerecTracker.org
    
Регистрация  ·  Вход
 
 · 
Забыли пароль?

  • Восставший / Воскресение Христа / Risen (Кевин Рейнольдс / Kevin Reynolds) [2016, США, боевик, драма, детектив, приключения, BDRip 1080p] MVO (Paradox & Omskbird records) + Sub Rus, Eng + Original Eng

    Ответить на тему
     
    Автор Сообщение

    Light

    Создавать темы 02-Июн-2016 19:06

           

    [Цитировать]

    Восставший / Воскресение Христа / Risen (2016)
    Страна: США
    Жанр: Боевик, драма, детектив, приключения
    Год выпуска: 2016
    Продолжительность: 01:47:38
    Перевод: Любительский (многоголосый закадровый) Paradox & Omskbird records
    Cубтитры: русские, английские
    Оригинальная аудиодорожка: английский
    Режиссер: Кевин Рейнольдс / Kevin Reynolds
    В ролях: Джозеф Файнс, Том Фелтон, Питер Фёрт, Клифф Кёртис, Мария Ботто, Луис Кальехо, Антонио Хиль-Мартинес, Ричард Этуилл, Марк Киллин, Стюарт Скудамор
    Описание: В картине пойдет речь о первых 40 днях, последовавших вслед за воскресением Христа. Основным персонажем станет атеистически настроенный римский центурион, которого прокуратор Иудеи, Понтий Пилат, посылает разузнать с чем связаны слухи о воскресении Христа, а также попытаться отыскать тело этого новоявленного мессии.
    Качество видео: BDRip 1080p
    Формат видео: MKV
    Видео: AVC, 1920x800 (2.40:1), 23.976 fps, 12.4 Mbps (0.337 bit/pixel)
    Аудио: DTS, 48.0 KHz, 6 ch, 1 510 Kbps, CBR (Russian)
    Аудио 2: DTS, 48.0 KHz, 6 ch, 1 510 Kbps, CBR (English)
    Формат субтитров: softsub (SRT)
    Доп. информация о субтитрах: Русские-Text #1/UTF-8, английские-Text #2/UTF-8,
    Text #3/UTF-8 ( все отключаемые)

    MediaInfo

    General
    Unique ID : 240641938637465660801468646560517506877 (0xB509F398C356F177A67BC458423EC73D)
    Complete name : E:\Мои раздачи\Воскресение Христа (2016).mkv
    Format : Matroska
    Format version : Version 4 / Version 2
    File size : 11.8 GiB
    Duration : 1h 47mn
    Overall bit rate : 15.7 Mbps
    Movie name : Восставший (2016) [1080p] HDLine
    Encoded date : UTC 2016-05-13 12:51:11
    Writing application : mkvmerge v9.1.0 ('Little Earthquakes') 64bit
    Writing library : libebml v1.3.3 + libmatroska v1.4.4
    Attachements : Cover.jpg
    DURATION : 01:38:01.918000000
    NUMBER_OF_FRAMES : 1237
    NUMBER_OF_BYTES : 32648
    _STATISTICS_WRITING_APP : mkvmerge v9.1.0 ('Little Earthquakes') 64bit
    _STATISTICS_WRITING_DATE_UTC : 2016-05-13 12:51:11
    _STATISTICS_TAGS : BPS DURATION NUMBER_OF_FRAMES NUMBER_OF_BYTES
    Video
    ID : 1
    Format : AVC
    Format/Info : Advanced Video Codec
    Format profile : High@L4.1
    Format settings, CABAC : Yes
    Format settings, ReFrames : 5 frames
    Codec ID : V_MPEG4/ISO/AVC
    Duration : 1h 47mn
    Bit rate : 12.4 Mbps
    Width : 1 920 pixels
    Height : 800 pixels
    Display aspect ratio : 2.40:1
    Frame rate mode : Constant
    Frame rate : 23.976 fps
    Color space : YUV
    Chroma subsampling : 4:2:0
    Bit depth : 8 bits
    Scan type : Progressive
    Bits/(Pixel*Frame) : 0.337
    Stream size : 9.33 GiB (79%)
    Title : Risen 2016 1080p BluRay x264 - HDMaNiAcS
    Writing library : x264 core 146 r2538 121396c
    Encoding settings : cabac=1 / ref=5 / deblock=1:-3:-3 / analyse=0x3:0x133 / me=tesa / subme=11 / psy=1 / psy_rd=1.04:0.00 / mixed_ref=1 / me_range=32 / chroma_me=1 / trellis=2 / 8x8dct=1 / cqm=0 / deadzone=21,11 / fast_pskip=0 / chroma_qp_offset=-2 / threads=48 / lookahead_threads=6 / sliced_threads=0 / nr=0 / decimate=0 / interlaced=0 / bluray_compat=0 / constrained_intra=0 / bframes=11 / b_pyramid=2 / b_adapt=2 / b_bias=0 / direct=3 / weightb=1 / open_gop=0 / weightp=2 / keyint=240 / keyint_min=23 / scenecut=40 / intra_refresh=0 / rc_lookahead=150 / rc=crf / mbtree=0 / crf=15.8 / qcomp=0.60 / qpmin=0 / qpmax=69 / qpstep=4 / vbv_maxrate=62500 / vbv_bufsize=78125 / crf_max=0.0 / nal_hrd=none / filler=0 / ip_ratio=1.40 / pb_ratio=1.30 / aq=1:0.80
    Language : English
    Default : Yes
    Forced : No
    Audio #1
    ID : 2
    Format : DTS
    Format/Info : Digital Theater Systems
    Mode : 16
    Format settings, Endianness : Big
    Codec ID : A_DTS
    Duration : 1h 47mn
    Bit rate mode : Constant
    Bit rate : 1 510 Kbps
    Channel(s) : 6 channels
    Channel positions : Front: L C R, Side: L R, LFE
    Sampling rate : 48.0 KHz
    Bit depth : 24 bits
    Compression mode : Lossy
    Stream size : 1.14 GiB (10%)
    Title : RUS - DTS 5.1 [VO P&O]
    Language : Russian
    Default : Yes
    Forced : No
    Audio #2
    ID : 3
    Format : DTS
    Format/Info : Digital Theater Systems
    Mode : 16
    Format settings, Endianness : Big
    Codec ID : A_DTS
    Duration : 1h 47mn
    Bit rate mode : Constant
    Bit rate : 1 509 Kbps
    Channel(s) : 6 channels
    Channel positions : Front: L C R, Side: L R, LFE
    Sampling rate : 48.0 KHz
    Bit depth : 24 bits
    Compression mode : Lossy
    Stream size : 1.13 GiB (10%)
    Title : ENG - DTS 5.1 [Original]
    Language : English
    Default : No
    Forced : No
    Text #1
    ID : 4
    Format : UTF-8
    Codec ID : S_TEXT/UTF8
    Codec ID/Info : UTF-8 Plain Text
    Language : Russian
    Default : No
    Forced : No
    Text #2
    ID : 5
    Format : UTF-8
    Codec ID : S_TEXT/UTF8
    Codec ID/Info : UTF-8 Plain Text
    Language : English
    Default : No
    Forced : No
    Text #3
    ID : 6
    Format : UTF-8
    Codec ID : S_TEXT/UTF8
    Codec ID/Info : UTF-8 Plain Text
    Title : SDH
    Language : English
    Default : No
    Forced : No
    Menu
    00:00:00.000 : en:00:00:00
    00:06:50.243 : en:00:06:50
    00:14:18.733 : en:00:14:18
    00:21:48.182 : en:00:21:48
    00:27:35.195 : en:00:27:35
    00:33:21.082 : en:00:33:21
    00:40:03.985 : en:00:40:03
    00:46:19.193 : en:00:46:19
    00:54:06.243 : en:00:54:06
    01:00:06.478 : en:01:00:06
    01:07:53.027 : en:01:07:53
    01:13:54.847 : en:01:13:54
    01:19:46.657 : en:01:19:46
    01:25:42.387 : en:01:25:42
    01:33:16.132 : en:01:33:16
    01:38:41.833 : en:01:38:41

    Скриншот c названием фильма

    Скриншоты

    Скачать .torrent

    Скачать торрент-файл бесплатно и на максимальной скорости!

    Как скачивать? · Что такое торрент? · Рейтинг и ограничения

    !ВНИМАНИЕ!
    Сайт не распространяет и не хранит электронные версии произведений, а занимается лишь лишь предоставлением доступа к создаваемому пользователями каталогу ссылок на торрент-файлы, которые содержат только списки хеш-сумм, убедительная просьба с жалобами обращаться напрямую к пользователю. Файлы для обмена на трекере предоставлены пользователями сайта, и администрация не несёт ответственности за их содержание. Просьба не заливать файлы, защищенные авторскими правами, а также файлы нелегального содержания!


    _________________
    [Профиль] [ЛС]
    Показать сообщения:    
    Ответить на тему

    Текущее время: Сегодня, в 22:24

    Часовой пояс: GMT + 2



    Вы не можете начинать темы
    Вы не можете отвечать на сообщения
    Вы не можете редактировать свои сообщения
    Вы не можете удалять свои сообщения
    Вы не можете голосовать в опросах
    Вы не можете прикреплять файлы к сообщениям
    Вы не можете скачивать файлы