BitTorrentTracker PerecTracker.org
BitTorrentTracker PerecTracker.org
    
Регистрация  ·  Вход
 
 · 
Забыли пароль?

  • Мой научный проект / My Science Project (Джонатан Р. Бетуэл / Jonathan R. Betuel) [1985, США, фантастика, боевик, комедия, приключения, BDRip 720p] MVO + Sub Eng + Original Eng

    Ответить на тему
     
    Автор Сообщение

    Light

    Создавать темы 02-Июн-2016 19:06

           

    [Цитировать]

    Мой научный проект / My Science Project
    Страна: США
    Жанр: фантастика, боевик, комедия, приключения
    Год выпуска: 1985
    Продолжительность: 01:34:43
    Перевод: Профессиональный (многоголосый закадровый)
    Cубтитры: английские
    Оригинальная аудиодорожка: английский-Режиссер: Джонатан Бетуэл / Jonathan R. Betuel-В ролях: Джон Стокуэлл, Даниэль фон Цернек, Фишер Стивенс, Рафаэль Сбардж, Ричард Мейсер, Бэрри Корбин, Энн Уэджуорт, Деннис Хоппер, Кендес Сильверс, Бо Дреманн-Описание: Майкл Харлан - юный лоботряс, которому поручено сделать в школе научный доклад. И герой не находит ничего лучшего, как в поисках какой-нибудь диковины, способной стать темой его выступления, забраться на заброшенную свалку министерства обороны. Что ж, кто ищет, тот всегда найдет. Особенно, когда речь идет о неприятностях.
    Майкл набредает на странную штуку, оказывающуюся… инопланетной машиной времени! Только идиоты в погонах могли выкинуть такое сокровище. И только такой незадачливый чудик, как Майкл, мог ненароком запустить этот фантастический агрегат. Перед ним и его однокашниками открывается настолько же заманчивая, насколько и опасная перспектива многочисленных приключений в коридорах времени…-Релиз:
    | Рип от SbR-Качество видео: BDRip | Sample
    Формат видео: MKV
    Видео: 1280x546 at 23.976 fps, x264@L4.1, ~9701 kbps avg
    Аудио 1: Russian: 48 kHz, AC3, 2/0 (L,R) ch, ~192.00 kbps avg
    Аудио 2: English: 48 kHz, AC3, 2/0 (L,R) ch, ~448.00 kbps avg-Цитата:
    Цитата:

    • Сохранены оригинальные главы как на Blu-ray
    • За русскую дорожку спасибо Neon'у

    MediaInfo

    Format                      : Matroska
    Format version              : Version 4 / Version 2
    File size                   : 6.84 GiB
    Duration                    : 1h 34mn
    Overall bit rate            : 10.3 Mbps
    Encoded date                : UTC 2016-05-31 05:13:28
    Writing application         : mkvmerge v8.3.0 ('Over the Horizon') 32bit
    Writing library             : libebml v1.3.1 + libmatroska v1.4.2
    Cover                       : Yes
    Attachments                 : cover.jpg
    Video
    ID                          : 1
    Format                      : AVC
    Format/Info                 : Advanced Video Codec
    Format profile              : High@L4.1
    Format settings, CABAC      : Yes
    Format settings, ReFrames   : 11 frames
    Codec ID                    : V_MPEG4/ISO/AVC
    Duration                    : 1h 34mn
    Bit rate                    : 9 701 Kbps
    Width                       : 1 280 pixels
    Height                      : 546 pixels
    Display aspect ratio        : 2.35:1
    Frame rate mode             : Constant
    Frame rate                  : 23.976 (24000/1001) fps
    Color space                 : YUV
    Chroma subsampling          : 4:2:0
    Bit depth                   : 8 bits
    Scan type                   : Progressive
    Bits/(Pixel*Frame)          : 0.579
    Stream size                 : 6.42 GiB (94%)
    Writing library             : x264 core 148 r2692+54 69a6f49 t_mod_Custom [8-bit@all X86_64]
    Encoding settings           : cabac=1 / ref=11 / deblock=1:-3:-3 / analyse=0x3:0x133 / me=umh / subme=10 / psy=1 / fade_compensate=0.00 / psy_rd=1.05:0.05 / mixed_ref=1 / me_range=32 / chroma_me=1 / trellis=2 / 8x8dct=1 / cqm=0 / deadzone=21,11 / fast_pskip=0 / chroma_qp_offset=-3 / threads=6 / lookahead_threads=1 / sliced_threads=0 / nr=0 / decimate=1 / interlaced=0 / bluray_compat=0 / constrained_intra=0 / fgo=0 / bframes=9 / b_pyramid=2 / b_adapt=2 / b_bias=0 / direct=3 / weightb=1 / open_gop=0 / weightp=2 / keyint=250 / keyint_min=23 / scenecut=40 / intra_refresh=0 / rc_lookahead=60 / rc=crf / mbtree=0 / crf=18.0000 / qcomp=0.60 / qpmin=0:0:0 / qpmax=69:69:69 / qpstep=4 / vbv_maxrate=62500 / vbv_bufsize=78125 / crf_max=0.0 / nal_hrd=none / filler=0 / ip_ratio=1.30 / pb_ratio=1.20 / aq=1:0.65 / aq-sensitivity=10.00 / aq-factor=1.00:1.00:1.00 / aq2=1:0.60 / aq2-sensitivity=15.00 / aq2-factor=1.00:1.00:1.00 / aq3=1:[0.50:0.50]:[0.50:0.50]:[0.50:0.50]:[0.50:0.50] / aq3-sensitivity=10.00 / aq3-factor=[1.00:1.00]:[1.00:1.00]:[1.00:1.00] / aq3-boundary=192:64:24
    Language                    : English
    Default                     : Yes
    Forced                      : No
    Color range                 : Limited
    Color primaries             : BT.709
    Transfer characteristics    : BT.709
    Matrix coefficients         : BT.709
    Audio #1
    ID                          : 2
    Format                      : AC-3
    Format/Info                 : Audio Coding 3
    Mode extension              : CM (complete main)
    Format settings, Endianness : Big
    Codec ID                    : A_AC3
    Duration                    : 1h 34mn
    Bit rate mode               : Constant
    Bit rate                    : 192 Kbps
    Channel(s)                  : 2 channels
    Channel positions           : Front: L R
    Sampling rate               : 48.0 KHz
    Frame rate                  : 31.250 fps (1536 spf)
    Compression mode            : Lossy
    Stream size                 : 130 MiB (2%)
    Title                       : Многоголосый закадровый
    Language                    : Russian
    Default                     : Yes
    Forced                      : No
    Audio #2
    ID                          : 3
    Format                      : AC-3
    Format/Info                 : Audio Coding 3
    Mode extension              : CM (complete main)
    Format settings, Endianness : Big
    Codec ID                    : A_AC3
    Duration                    : 1h 34mn
    Bit rate mode               : Constant
    Bit rate                    : 448 Kbps
    Channel(s)                  : 2 channels
    Channel positions           : Front: L R
    Sampling rate               : 48.0 KHz
    Frame rate                  : 31.250 fps (1536 spf)
    Compression mode            : Lossy
    Stream size                 : 304 MiB (4%)
    Language                    : English
    Default                     : No
    Forced                      : No
    Text
    ID                          : 4
    Format                      : UTF-8
    Codec ID                    : S_TEXT/UTF8
    Codec ID/Info               : UTF-8 Plain Text
    Duration                    : 1h 32mn
    Bit rate                    : 46 bps
    Count of elements           : 899
    Stream size                 : 31.6 KiB (0%)
    Language                    : English
    Default                     : No
    Forced                      : No
    Menu
    00:00:00.000                : en:00:00:00.000
    00:15:27.343                : en:00:15:27.343
    00:44:28.332                : en:00:44:28.332
    01:08:12.213                : en:01:08:12.213
    01:30:57.368                : en:01:30:57.368

    Скриншоты

    Скачать .torrent

    Скачать торрент-файл бесплатно и на максимальной скорости!

    Как скачивать? · Что такое торрент? · Рейтинг и ограничения

    !ВНИМАНИЕ!
    Сайт не распространяет и не хранит электронные версии произведений, а занимается лишь лишь предоставлением доступа к создаваемому пользователями каталогу ссылок на торрент-файлы, которые содержат только списки хеш-сумм, убедительная просьба с жалобами обращаться напрямую к пользователю. Файлы для обмена на трекере предоставлены пользователями сайта, и администрация не несёт ответственности за их содержание. Просьба не заливать файлы, защищенные авторскими правами, а также файлы нелегального содержания!


    _________________
    [Профиль] [ЛС]
    Показать сообщения:    
    Ответить на тему

    Текущее время: Сегодня, в 09:03

    Часовой пояс: GMT + 2



    Вы не можете начинать темы
    Вы не можете отвечать на сообщения
    Вы не можете редактировать свои сообщения
    Вы не можете удалять свои сообщения
    Вы не можете голосовать в опросах
    Вы не можете прикреплять файлы к сообщениям
    Вы не можете скачивать файлы