BitTorrentTracker PerecTracker.org
BitTorrentTracker PerecTracker.org
    
Регистрация  ·  Вход
 
 · 
Забыли пароль?

  • Падший предвестник / Harbinger down (Алек Гиллис / Alec Gillis) [2015, США, фантастика, ужасы, BDRemux 1080p] VO (Lord32x) + Sub Eng + Original Eng

    Ответить на тему
     
    Автор Сообщение

    Light

    Создавать темы 02-Июн-2016 19:06

           

    [Цитировать]

    -Падший предвестник / Harbinger down-Страна: США
    Жанр: фантастика, ужасы
    Год выпуска: 2015
    Продолжительность: 01:22:00-Перевод: Одноголосый закадровый Lord32x
    Cубтитры: английские
    Оригинальная аудиодорожка: английский-Режиссер: Алек Гиллис / Alec Gillis
    В ролях: Ланс Хенриксен, Камиль Бальзамо, Мэт Уинстон, Рейд Коллам, Уинстон Фрэнсиз-Описание: Группа ученых исследует влияние глобального потепления на обитателей морских глубин в Беринговом море, неожиданно они натыкаются на космический корабль, много лет назад рухнувший на Землю. На борту корабля прячется что-то опасное...-Сэмпл-Тип релиза: BDRemux 1080p
    Контейнер: MKV
    Видео: MPEG-4 AVC Video 19993 kbps 1080p / 23.976 fps / 16:9 / High Profile 4.1
    Аудио: Russian / Dolby Digital Audio / 5.1 / 48 kHz / 384 kbps
    Аудио 2: DTS-HD Master Audio English 5.1 / 48 kHz / 2196 kbps / 16-bit (DTS Core: 5.1 / 48 kHz / 1509 kbps / 16-bit)
    Формат субтитров: softsub (SRT)

    MI

    GeneralUnique ID : 248834747839275432479435408033893179066 (0xBB33D446E51A082A93AF4CD7B5A9DEBA)Complete name : S:\На хранении\Падший предвестник (2015. Harbinger down).mkvFormat : MatroskaFormat version : Version 4 / Version 2File size : 12.9 GiBDuration : 1h 22mnOverall bit rate mode : VariableOverall bit rate : 22.5 MbpsMovie name : Release for RuTrackerEncoded date : UTC 2016-06-01 10:07:27Writing application : mkvmerge v9.0.1 ('Obstacles') 64bitWriting library : libebml v1.3.3 + libmatroska v1.4.4Cover : YesAttachments : Cover.jpg
    VideoID : 1Format : AVCFormat/Info : Advanced Video CodecFormat profile : High@L4.1Format settings, CABAC : YesFormat settings, ReFrames : 4 framesCodec ID : V_MPEG4/ISO/AVCDuration : 1h 22mnBit rate mode : VariableBit rate : 20.0 MbpsMaximum bit rate : 35.0 MbpsWidth : 1 920 pixelsHeight : 1 080 pixelsDisplay aspect ratio : 16:9Frame rate mode : ConstantFrame rate : 23.976 (24000/1001) fpsColor space : YUVChroma subsampling : 4:2:0Bit depth : 8 bitsScan type : ProgressiveBits/(Pixel*Frame) : 0.402Stream size : 11.5 GiB (89%)Title : Harbinger Down 2015 1080p GER Blu-ray AVC DTS-HD MA 5.1-BDALanguage : EnglishDefault : NoForced : No
    Audio #1ID : 2Format : AC-3Format/Info : Audio Coding 3Mode extension : CM (complete main)Format settings, Endianness : BigCodec ID : A_AC3Duration : 1h 21mnBit rate mode : ConstantBit rate : 384 KbpsChannel(s) : 6 channelsChannel positions : Front: L C R, Side: L R, LFESampling rate : 48.0 KHzFrame rate : 31.250 fps (1536 spf)Compression mode : LossyStream size : 225 MiB (2%)Title : Lord32x по переводу М.ВасильеваLanguage : RussianDefault : YesForced : No
    Audio #2ID : 3Format : DTSFormat/Info : Digital Theater SystemsFormat profile : MA / CoreMode : 16Format settings, Endianness : BigCodec ID : A_DTSDuration : 1h 22mnBit rate mode : Variable / ConstantBit rate : 2 193 Kbps / 1 509 KbpsChannel(s) : 6 channelsChannel positions : Front: L C R, Side: L R, LFESampling rate : 48.0 KHzFrame rate : 93.750 fps (512 spf)Bit depth : 16 bitsCompression mode : Lossless / LossyStream size : 1.26 GiB (10%)Language : EnglishDefault : NoForced : No
    TextID : 4Format : UTF-8Codec ID : S_TEXT/UTF8Codec ID/Info : UTF-8 Plain TextDuration : 1h 14mnBit rate : 43 bpsCount of elements : 649Stream size : 23.6 KiB (0%)Language : EnglishDefault : NoForced : No
    Menu00:00:00.000 : en:Chapter 0100:07:28.448 : en:Chapter 0200:12:59.904 : en:Chapter 0300:21:27.411 : en:Chapter 0400:28:53.857 : en:Chapter 0500:35:06.229 : en:Chapter 0600:41:19.602 : en:Chapter 0700:48:03.005 : en:Chapter 0800:54:54.416 : en:Chapter 0901:00:23.745 : en:Chapter 1001:07:33.174 : en:Chapter 1101:17:35.776 : en:Chapter 12
    Скриншоты

    Зеркало


    Цитата:
    Цитата:

    • Русская дорожка с этой раздачи. Перевод: [url=profile.php?mode=viewprofile&u=21131053]М.Васильев[/url]. Озвучка: Lord32x
    • Сохранены оригинальные главы как на Blu-ray.
    • Обзор на ютубе.
    Скачать .torrent

    Скачать торрент-файл бесплатно и на максимальной скорости!

    Как скачивать? · Что такое торрент? · Рейтинг и ограничения

    !ВНИМАНИЕ!
    Сайт не распространяет и не хранит электронные версии произведений, а занимается лишь лишь предоставлением доступа к создаваемому пользователями каталогу ссылок на торрент-файлы, которые содержат только списки хеш-сумм, убедительная просьба с жалобами обращаться напрямую к пользователю. Файлы для обмена на трекере предоставлены пользователями сайта, и администрация не несёт ответственности за их содержание. Просьба не заливать файлы, защищенные авторскими правами, а также файлы нелегального содержания!


    _________________
    [Профиль] [ЛС]
    Показать сообщения:    
    Ответить на тему

    Текущее время: Сегодня, в 14:42

    Часовой пояс: GMT + 2



    Вы не можете начинать темы
    Вы не можете отвечать на сообщения
    Вы не можете редактировать свои сообщения
    Вы не можете удалять свои сообщения
    Вы не можете голосовать в опросах
    Вы не можете прикреплять файлы к сообщениям
    Вы не можете скачивать файлы